  0
SECTION
  2
HEADER
  9
$ACADVER
  1
AC1015
  9
$ACADMAINTVER
 70
    20
  9
$DWGCODEPAGE
  3
ANSI_932
  9
$INSBASE
 10
0.0
 20
0.0
 30
0.0
  9
$EXTMIN
 10
363.2367431686863
 20
305.481586464234
 30
0.0
  9
$EXTMAX
 10
440.07087619608
 20
328.7112452601383
 30
0.0
  9
$LIMMIN
 10
0.0
 20
0.0
  9
$LIMMAX
 10
12.0
 20
9.0
  9
$ORTHOMODE
 70
     0
  9
$REGENMODE
 70
     1
  9
$FILLMODE
 70
     1
  9
$QTEXTMODE
 70
     0
  9
$MIRRTEXT
 70
     0
  9
$LTSCALE
 40
1.0
  9
$ATTMODE
 70
     1
  9
$TEXTSIZE
 40
0.2
  9
$TRACEWID
 40
0.05
  9
$TEXTSTYLE
  7
FontStyle1
  9
$CLAYER
  8
Dimension
  9
$CELTYPE
  6
ByLayer
  9
$CECOLOR
 62
   256
  9
$CELTSCALE
 40
1.0
  9
$DISPSILH
 70
     0
  9
$DIMSCALE
 40
1.0
  9
$DIMASZ
 40
1.0
  9
$DIMEXO
 40
0.5
  9
$DIMDLI
 40
7.0
  9
$DIMRND
 40
0.0
  9
$DIMDLE
 40
0.0
  9
$DIMEXE
 40
0.5
  9
$DIMTP
 40
0.0
  9
$DIMTM
 40
0.0
  9
$DIMTXT
 40
1.3
  9
$DIMCEN
 40
0.3
  9
$DIMTSZ
 40
0.0
  9
$DIMTOL
 70
     0
  9
$DIMLIM
 70
     0
  9
$DIMTIH
 70
     0
  9
$DIMTOH
 70
     0
  9
$DIMSE1
 70
     0
  9
$DIMSE2
 70
     0
  9
$DIMTAD
 70
     1
  9
$DIMZIN
 70
     9
  9
$DIMBLK
  1
Open30
  9
$DIMASO
 70
     1
  9
$DIMSHO
 70
     1
  9
$DIMPOST
  1

  9
$DIMAPOST
  1

  9
$DIMALT
 70
     0
  9
$DIMALTD
 70
     3
  9
$DIMALTF
 40
0.03937007874016
  9
$DIMLFAC
 40
1.0
  9
$DIMTOFL
 70
     1
  9
$DIMTVP
 40
0.0
  9
$DIMTIX
 70
     0
  9
$DIMSOXD
 70
     0
  9
$DIMSAH
 70
     0
  9
$DIMBLK1
  1

  9
$DIMBLK2
  1

  9
$DIMSTYLE
  2
DimStyle1
  9
$DIMCLRD
 70
     0
  9
$DIMCLRE
 70
     0
  9
$DIMCLRT
 70
     0
  9
$DIMTFAC
 40
1.0
  9
$DIMGAP
 40
0.5
  9
$DIMJUST
 70
     0
  9
$DIMSD1
 70
     0
  9
$DIMSD2
 70
     0
  9
$DIMTOLJ
 70
     0
  9
$DIMTZIN
 70
     8
  9
$DIMALTZ
 70
     0
  9
$DIMALTTZ
 70
     0
  9
$DIMUPT
 70
     0
  9
$DIMDEC
 70
     2
  9
$DIMTDEC
 70
     2
  9
$DIMALTU
 70
     2
  9
$DIMALTTD
 70
     3
  9
$DIMTXSTY
  7
FontStyle1
  9
$DIMAUNIT
 70
     0
  9
$DIMADEC
 70
     2
  9
$DIMALTRND
 40
0.0
  9
$DIMAZIN
 70
     2
  9
$DIMDSEP
 70
    46
  9
$DIMATFIT
 70
     3
  9
$DIMFRAC
 70
     0
  9
$DIMLDRBLK
  1
Open30
  9
$DIMLUNIT
 70
     2
  9
$DIMLWD
 70
    -2
  9
$DIMLWE
 70
    -2
  9
$DIMTMOVE
 70
     0
  9
$LUNITS
 70
     2
  9
$LUPREC
 70
     4
  9
$SKETCHINC
 40
0.1
  9
$FILLETRAD
 40
0.0
  9
$AUNITS
 70
     0
  9
$AUPREC
 70
     0
  9
$MENU
  1
.
  9
$ELEVATION
 40
0.0
  9
$PELEVATION
 40
0.0
  9
$THICKNESS
 40
0.0
  9
$LIMCHECK
 70
     0
  9
$CHAMFERA
 40
0.0
  9
$CHAMFERB
 40
0.0
  9
$CHAMFERC
 40
0.0
  9
$CHAMFERD
 40
0.0
  9
$SKPOLY
 70
     0
  9
$TDCREATE
 40
2455622.734854733
  9
$TDUCREATE
 40
2455622.359854733
  9
$TDUPDATE
 40
2455884.454599919
  9
$TDUUPDATE
 40
2455884.079599919
  9
$TDINDWG
 40
0.7505132755
  9
$TDUSRTIMER
 40
0.7504943634
  9
$USRTIMER
 70
     1
  9
$ANGBASE
 50
0.0
  9
$ANGDIR
 70
     0
  9
$PDMODE
 70
     0
  9
$PDSIZE
 40
0.0
  9
$PLINEWID
 40
0.0
  9
$SPLFRAME
 70
     0
  9
$SPLINETYPE
 70
     6
  9
$SPLINESEGS
 70
     8
  9
$HANDSEED
  5
1F9C
  9
$SURFTAB1
 70
     6
  9
$SURFTAB2
 70
     6
  9
$SURFTYPE
 70
     6
  9
$SURFU
 70
     6
  9
$SURFV
 70
     6
  9
$UCSBASE
  2

  9
$UCSNAME
  2

  9
$UCSORG
 10
0.0
 20
0.0
 30
0.0
  9
$UCSXDIR
 10
1.0
 20
0.0
 30
0.0
  9
$UCSYDIR
 10
0.0
 20
1.0
 30
0.0
  9
$UCSORTHOREF
  2

  9
$UCSORTHOVIEW
 70
     0
  9
$UCSORGTOP
 10
0.0
 20
0.0
 30
0.0
  9
$UCSORGBOTTOM
 10
0.0
 20
0.0
 30
0.0
  9
$UCSORGLEFT
 10
0.0
 20
0.0
 30
0.0
  9
$UCSORGRIGHT
 10
0.0
 20
0.0
 30
0.0
  9
$UCSORGFRONT
 10
0.0
 20
0.0
 30
0.0
  9
$UCSORGBACK
 10
0.0
 20
0.0
 30
0.0
  9
$PUCSBASE
  2

  9
$PUCSNAME
  2

  9
$PUCSORG
 10
0.0
 20
0.0
 30
0.0
  9
$PUCSXDIR
 10
1.0
 20
0.0
 30
0.0
  9
$PUCSYDIR
 10
0.0
 20
1.0
 30
0.0
  9
$PUCSORTHOREF
  2

  9
$PUCSORTHOVIEW
 70
     0
  9
$PUCSORGTOP
 10
0.0
 20
0.0
 30
0.0
  9
$PUCSORGBOTTOM
 10
0.0
 20
0.0
 30
0.0
  9
$PUCSORGLEFT
 10
0.0
 20
0.0
 30
0.0
  9
$PUCSORGRIGHT
 10
0.0
 20
0.0
 30
0.0
  9
$PUCSORGFRONT
 10
0.0
 20
0.0
 30
0.0
  9
$PUCSORGBACK
 10
0.0
 20
0.0
 30
0.0
  9
$USERI1
 70
     0
  9
$USERI2
 70
     0
  9
$USERI3
 70
     0
  9
$USERI4
 70
     0
  9
$USERI5
 70
     0
  9
$USERR1
 40
0.0
  9
$USERR2
 40
0.0
  9
$USERR3
 40
0.0
  9
$USERR4
 40
0.0
  9
$USERR5
 40
0.0
  9
$WORLDVIEW
 70
     1
  9
$SHADEDGE
 70
     3
  9
$SHADEDIF
 70
    70
  9
$TILEMODE
 70
     0
  9
$MAXACTVP
 70
    64
  9
$PINSBASE
 10
0.0
 20
0.0
 30
0.0
  9
$PLIMCHECK
 70
     0
  9
$PEXTMIN
 10
-10.79828699466236
 20
-5.796948727361268
 30
-0.0000000000000052
  9
$PEXTMAX
 10
286.210772696237
 20
204.2094573197426
 30
0.00000000000001
  9
$PLIMMIN
 10
-10.79376220703125
 20
-5.793749809265136
  9
$PLIMMAX
 10
286.2062377929687
 20
204.2062501907349
  9
$UNITMODE
 70
     0
  9
$VISRETAIN
 70
     1
  9
$PLINEGEN
 70
     0
  9
$PSLTSCALE
 70
     1
  9
$TREEDEPTH
 70
  3020
  9
$CMLSTYLE
  2
Standard
  9
$CMLJUST
 70
     0
  9
$CMLSCALE
 40
1.0
  9
$PROXYGRAPHICS
 70
     1
  9
$MEASUREMENT
 70
     0
  9
$CELWEIGHT
370
    -1
  9
$ENDCAPS
280
     0
  9
$JOINSTYLE
280
     0
  9
$LWDISPLAY
290
     0
  9
$INSUNITS
 70
     1
  9
$HYPERLINKBASE
  1

  9
$STYLESHEET
  1

  9
$XEDIT
290
     1
  9
$CEPSNTYPE
380
     0
  9
$PSTYLEMODE
290
     1
  9
$FINGERPRINTGUID
  2
{82DD2A22-D98B-4931-83E1-60665FE557E1}
  9
$VERSIONGUID
  2
{4AEB43D7-0C91-47C9-8A8A-322754033F4C}
  9
$EXTNAMES
290
     1
  9
$PSVPSCALE
 40
0.0
  9
$OLESTARTUP
290
     0
  0
ENDSEC
  0
SECTION
  2
CLASSES
  0
CLASS
  1
ACDBDICTIONARYWDFLT
  2
AcDbDictionaryWithDefault
  3
ObjectDBX Classes
 90
        0
280
     0
281
     0
  0
CLASS
  1
DICTIONARYVAR
  2
AcDbDictionaryVar
  3
ObjectDBX Classes
 90
        0
280
     0
281
     0
  0
CLASS
  1
TABLESTYLE
  2
AcDbTableStyle
  3
ObjectDBX Classes
 90
     4095
280
     0
281
     0
  0
CLASS
  1
MATERIAL
  2
AcDbMaterial
  3
ObjectDBX Classes
 90
     1024
280
     0
281
     0
  0
CLASS
  1
VISUALSTYLE
  2
AcDbVisualStyle
  3
ObjectDBX Classes
 90
     4095
280
     0
281
     0
  0
CLASS
  1
SORTENTSTABLE
  2
AcDbSortentsTable
  3
ObjectDBX Classes
 90
        0
280
     0
281
     0
  0
CLASS
  1
ACAD_TABLE
  2
AcDbTable
  3
ObjectDBX Classes
 90
    33793
280
     0
281
     1
  0
CLASS
  1
DIMASSOC
  2
AcDbDimAssoc
  3
"AcDbDimAssoc|Product Desc:     AcDim ARX App For Dimension|Company:          Autodesk, Inc.|WEB Address:      www.autodesk.com"
 90
    32768
280
     0
281
     0
  0
CLASS
  1
ACAD_EVALUATION_GRAPH
  2
AcDbEvalGraph
  3
ObjectDBX Classes
 90
    33921
280
     0
281
     0
  0
CLASS
  1
ACAECUSTOBJ
  2
AcAeEditorObj
  3
AcAeEditorObj
 90
    33792
280
     0
281
     0
  0
CLASS
  1
ACDB_DYNAMICBLOCKPURGEPREVENTER_VERSION
  2
AcDbDynamicBlockPurgePreventer
  3
ObjectDBX Classes
 90
    33921
280
     0
281
     0
  0
CLASS
  1
ACDB_BLOCKREPRESENTATION_DATA
  2
AcDbBlockRepresentationData
  3
ObjectDBX Classes
 90
    33921
280
     0
281
     0
  0
CLASS
  1
ACDBPLACEHOLDER
  2
AcDbPlaceHolder
  3
ObjectDBX Classes
 90
        0
280
     0
281
     0
  0
CLASS
  1
LAYOUT
  2
AcDbLayout
  3
ObjectDBX Classes
 90
        0
280
     0
281
     0
  0
ENDSEC
  0
SECTION
  2
TABLES
  0
TABLE
  2
VPORT
  5
8
330
0
100
AcDbSymbolTable
 70
     1
  0
VPORT
  5
94
330
8
100
AcDbSymbolTableRecord
100
AcDbViewportTableRecord
  2
*Active
 70
     0
 10
0.0
 20
0.0
 11
1.0
 21
1.0
 12
392.9048719548276
 22
320.0221192869038
 13
0.0
 23
0.0
 14
0.5
 24
0.5
 15
0.5
 25
0.5
 16
0.0
 26
0.0
 36
1.0
 17
0.0
 27
0.0
 37
0.0
 40
98.1903194746332
 41
1.54390243902439
 42
50.0
 43
0.0
 44
0.0
 50
0.0
 51
0.0
 71
     0
 72
  1000
 73
     1
 74
     3
 75
     0
 76
     0
 77
     0
 78
     0
281
     0
 65
     1
110
0.0
120
0.0
130
0.0
111
1.0
121
0.0
131
0.0
112
0.0
122
1.0
132
0.0
 79
     0
146
0.0
  0
ENDTAB
  0
TABLE
  2
LTYPE
  5
5
330
0
100
AcDbSymbolTable
 70
     4
  0
LTYPE
  5
14
330
5
100
AcDbSymbolTableRecord
100
AcDbLinetypeTableRecord
  2
ByBlock
 70
     0
  3

 72
    65
 73
     0
 40
0.0
  0
LTYPE
  5
15
330
5
100
AcDbSymbolTableRecord
100
AcDbLinetypeTableRecord
  2
ByLayer
 70
     0
  3

 72
    65
 73
     0
 40
0.0
  0
LTYPE
  5
16
330
5
100
AcDbSymbolTableRecord
100
AcDbLinetypeTableRecord
  2
Continuous
 70
     0
  3
Solid line
 72
    65
 73
     0
 40
0.0
  0
LTYPE
  5
B00
330
5
100
AcDbSymbolTableRecord
100
AcDbLinetypeTableRecord
  2
CENTER
 70
     0
  3
Center ____ _ ____ _ ____ _ ____ _ ____ _ ____
 72
    65
 73
     4
 40
2.0
 49
1.25
 74
     0
 49
-0.25
 74
     0
 49
0.25
 74
     0
 49
-0.25
 74
     0
  0
LTYPE
  5
B01
330
5
100
AcDbSymbolTableRecord
100
AcDbLinetypeTableRecord
  2
HIDDEN
 70
     0
  3
Hidden __ __ __ __ __ __ __ __ __ __ __ __ __ __
 72
    65
 73
     2
 40
0.375
 49
0.25
 74
     0
 49
-0.125
 74
     0
  0
LTYPE
  5
B02
330
5
100
AcDbSymbolTableRecord
100
AcDbLinetypeTableRecord
  2
PHANTOM
 70
     0
  3
Phantom ______  __  __  ______  __  __  ______
 72
    65
 73
     6
 40
2.5
 49
1.25
 74
     0
 49
-0.25
 74
     0
 49
0.25
 74
     0
 49
-0.25
 74
     0
 49
0.25
 74
     0
 49
-0.25
 74
     0
  0
ENDTAB
  0
TABLE
  2
LAYER
  5
2
102
{ACAD_XDICTIONARY
360
3AF
102
}
330
0
100
AcDbSymbolTable
 70
     9
  0
LAYER
  5
10
330
2
100
AcDbSymbolTableRecord
100
AcDbLayerTableRecord
  2
0
 70
     0
 62
     7
  6
Continuous
370
    -3
390
F
  0
LAYER
  5
19F
330
2
100
AcDbSymbolTableRecord
100
AcDbLayerTableRecord
  2
Defpoints
 70
     0
 62
     7
  6
Continuous
290
     0
370
    -3
390
F
  0
LAYER
  5
4C2
330
2
100
AcDbSymbolTableRecord
100
AcDbLayerTableRecord
  2
Layer_0
 70
     0
 62
     7
  6
Continuous
370
    -3
390
F
  0
LAYER
  5
AF7
330
2
100
AcDbSymbolTableRecord
100
AcDbLayerTableRecord
  2
OutlineB
 70
     0
 62
     7
  6
Continuous
370
    25
390
F
1001
AcAecLayerStandard
1000

1000

  0
LAYER
  5
AF9
330
2
100
AcDbSymbolTableRecord
100
AcDbLayerTableRecord
  2
OutlineN
 70
     0
 62
     7
  6
Continuous
370
    15
390
F
1001
AcAecLayerStandard
1000

1000

  0
LAYER
  5
AFA
330
2
100
AcDbSymbolTableRecord
100
AcDbLayerTableRecord
  2
Center
 70
     0
 62
     1
  6
CENTER
370
    15
390
F
1001
AcAecLayerStandard
1000

1000

  0
LAYER
  5
AFB
330
2
100
AcDbSymbolTableRecord
100
AcDbLayerTableRecord
  2
Hidden
 70
     0
 62
     8
  6
HIDDEN
370
    15
390
F
1001
AcAecLayerStandard
1000

1000

  0
LAYER
  5
AFC
330
2
100
AcDbSymbolTableRecord
100
AcDbLayerTableRecord
  2
Dimension
 70
     0
 62
     5
  6
Continuous
370
    15
390
F
1001
AcAecLayerStandard
1000

1000

  0
LAYER
  5
AFD
330
2
100
AcDbSymbolTableRecord
100
AcDbLayerTableRecord
  2
Phantom
 70
     0
 62
    30
  6
PHANTOM
370
    15
390
F
1001
AcAecLayerStandard
1000

1000

  0
ENDTAB
  0
TABLE
  2
STYLE
  5
3
330
0
100
AcDbSymbolTable
 70
     3
  0
STYLE
  5
11
330
3
100
AcDbSymbolTableRecord
100
AcDbTextStyleTableRecord
  2
Standard
 70
     0
 40
0.0
 41
1.0
 50
0.0
 71
     0
 42
0.2
  3
txt.shx
  4
extfont2.shx
  0
STYLE
  5
AFF
330
3
100
AcDbSymbolTableRecord
100
AcDbTextStyleTableRecord
  2

 70
     1
 40
0.0
 41
1.0
 50
0.0
 71
     0
 42
0.2
  3
ltypeshp.shx
  4

  0
STYLE
  5
B07
330
3
100
AcDbSymbolTableRecord
100
AcDbTextStyleTableRecord
  2
FontStyle1
 70
     0
 40
0.0
 41
1.0
 50
0.0
 71
     0
 42
0.2
  3
simplex.shx
  4
bigfont.shx
  0
ENDTAB
  0
TABLE
  2
VIEW
  5
6
330
0
100
AcDbSymbolTable
 70
     0
  0
ENDTAB
  0
TABLE
  2
UCS
  5
7
330
0
100
AcDbSymbolTable
 70
     0
  0
ENDTAB
  0
TABLE
  2
APPID
  5
9
330
0
100
AcDbSymbolTable
 70
     9
  0
APPID
  5
12
330
9
100
AcDbSymbolTableRecord
100
AcDbRegAppTableRecord
  2
ACAD
 70
     0
  0
APPID
  5
D1
330
9
100
AcDbSymbolTableRecord
100
AcDbRegAppTableRecord
  2
ACAD_EXEMPT_FROM_CAD_STANDARDS
 70
     0
  0
APPID
  5
3A9
330
9
100
AcDbSymbolTableRecord
100
AcDbRegAppTableRecord
  2
ACAD_PSEXT
 70
     0
  0
APPID
  5
AF8
330
9
100
AcDbSymbolTableRecord
100
AcDbRegAppTableRecord
  2
AcAecLayerStandard
 70
     0
  0
APPID
  5
E68
330
9
100
AcDbSymbolTableRecord
100
AcDbRegAppTableRecord
  2
ACAUTHENVIRON
 70
     0
  0
APPID
  5
E84
330
9
100
AcDbSymbolTableRecord
100
AcDbRegAppTableRecord
  2
AcDbDynamicBlockTrueName
 70
     0
  0
APPID
  5
E85
330
9
100
AcDbSymbolTableRecord
100
AcDbRegAppTableRecord
  2
AcDbDynamicBlockGUID
 70
     0
  0
APPID
  5
E87
330
9
100
AcDbSymbolTableRecord
100
AcDbRegAppTableRecord
  2
AcDbBlockRepETag
 70
     0
  0
APPID
  5
10BF
330
9
100
AcDbSymbolTableRecord
100
AcDbRegAppTableRecord
  2
AcDbBlockRepBTag
 70
     0
  0
ENDTAB
  0
TABLE
  2
DIMSTYLE
  5
A
330
0
100
AcDbSymbolTable
 70
     3
100
AcDbDimStyleTable
 71
     3
340
B0A
340
4C3
340
27
  0
DIMSTYLE
105
27
330
A
100
AcDbSymbolTableRecord
100
AcDbDimStyleTableRecord
  2
Standard
 70
     0
 41
2.0
 42
1.0
 44
1.5
140
3.0
141
1.5
147
1.0
340
11
341
2E0
342
2E0
  0
DIMSTYLE
105
4C3
330
A
100
AcDbSymbolTableRecord
100
AcDbDimStyleTableRecord
  2
ISO-25
 70
     0
 41
2.5
 42
0.625
 43
3.75
 44
1.25
 73
     0
 74
     0
 77
     1
 78
     8
140
2.5
141
2.5
143
0.03937007874016
147
0.625
171
     3
172
     1
271
     2
272
     2
274
     3
278
    44
283
     0
284
     8
340
11
  0
DIMSTYLE
105
B0A
102
{ACAD_REACTORS
330
13BB
330
144F
330
1467
330
1776
330
1D18
102
}
330
A
100
AcDbSymbolTableRecord
100
AcDbDimStyleTableRecord
  2
DimStyle1
 70
     0
 41
1.0
 42
0.5
 43
7.0
 44
0.5
 73
     0
 74
     0
 77
     1
 78
     9
 79
     2
140
1.3
141
0.3
143
0.03937007874016
147
0.5
171
     3
172
     1
179
     2
271
     2
272
     2
274
     3
283
     0
284
     8
340
B07
341
2E0
342
2E0
  0
ENDTAB
  0
TABLE
  2
BLOCK_RECORD
  5
1
330
0
100
AcDbSymbolTable
 70
    14
  0
BLOCK_RECORD
  5
1F
102
{ACAD_XDICTIONARY
360
CB
102
}
330
1
100
AcDbSymbolTableRecord
100
AcDbBlockTableRecord
  2
*Model_Space
340
22
  0
BLOCK_RECORD
  5
58
102
{ACAD_XDICTIONARY
360
130F
102
}
330
1
100
AcDbSymbolTableRecord
100
AcDbBlockTableRecord
  2
*Paper_Space
340
59
  0
BLOCK_RECORD
  5
2E0
330
1
100
AcDbSymbolTableRecord
100
AcDbBlockTableRecord
  2
_Open30
340
0
102
{BLKREFS
331
1449
331
144A
331
1701
331
1702
331
1C1C
331
1C1D
331
1C8A
331
1C8B
331
1D09
331
1D0A
331
1D45
331
1D46
331
1E0A
331
1E0B
331
1E25
331
1E26
331
1EC9
331
1ECA
102
}
  0
BLOCK_RECORD
  5
8AB
102
{ACAD_XDICTIONARY
360
10BC
102
}
330
1
100
AcDbSymbolTableRecord
100
AcDbBlockTableRecord
  2
A4横（ねじ）
340
0
310
2800000020000000200000000100080000000000000400000000000000000000000000000000000000000000000080000080000000808000800000008000800080800000C0C0C000C0DCC000F0CAA6000020400000206000002080000020A0000020C0000020E00000400000004020000040400000406000004080000040A0
310
000040C0000040E00000600000006020000060400000606000006080000060A0000060C0000060E00000800000008020000080400000806000008080000080A0000080C0000080E00000A0000000A0200000A0400000A0600000A0800000A0A00000A0C00000A0E00000C0000000C0200000C0400000C0600000C0800000C0
310
A00000C0C00000C0E00000E0000000E0200000E0400000E0600000E0800000E0A00000E0C00000E0E00040000000400020004000400040006000400080004000A0004000C0004000E00040200000402020004020400040206000402080004020A0004020C0004020E000404000004040200040404000404060004040800040
310
40A0004040C0004040E00040600000406020004060400040606000406080004060A0004060C0004060E00040800000408020004080400040806000408080004080A0004080C0004080E00040A0000040A0200040A0400040A0600040A0800040A0A00040A0C00040A0E00040C0000040C0200040C0400040C0600040C08000
310
40C0A00040C0C00040C0E00040E0000040E0200040E0400040E0600040E0800040E0A00040E0C00040E0E00080000000800020008000400080006000800080008000A0008000C0008000E00080200000802020008020400080206000802080008020A0008020C0008020E00080400000804020008040400080406000804080
310
008040A0008040C0008040E00080600000806020008060400080606000806080008060A0008060C0008060E00080800000808020008080400080806000808080008080A0008080C0008080E00080A0000080A0200080A0400080A0600080A0800080A0A00080A0C00080A0E00080C0000080C0200080C0400080C0600080C0
310
800080C0A00080C0C00080C0E00080E0000080E0200080E0400080E0600080E0800080E0A00080E0C00080E0E000C0000000C0002000C0004000C0006000C0008000C000A000C000C000C000E000C0200000C0202000C0204000C0206000C0208000C020A000C020C000C020E000C0400000C0402000C0404000C0406000C0
310
408000C040A000C040C000C040E000C0600000C0602000C0604000C0606000C0608000C060A000C060C000C060E000C0800000C0802000C0804000C0806000C0808000C080A000C080C000C080E000C0A00000C0A02000C0A04000C0A06000C0A08000C0A0A000C0A0C000C0A0E000C0C00000C0C02000C0C04000C0C06000
310
C0C08000C0C0A000F0FBFF00A4A0A000808080000000FF0000FF000000FFFF00FF000000FF00FF00FFFF0000FFFFFF00FFFFFFFFFFFFFFFFFFFFFFFFFFFFFFFFFFFFFFFFFFFFFFFFFFFFFFFFFFFFFFFFFFFFFFFFFFFFFFFFFFFFFFFFFFFFFFFFFFFFFFFFFFFFFFFFFFFFFFFFFFFFFFFFFFFFFFFFFFFFFFFFFFFFFFFFFFFFFF
310
FFFFFFFFFFFFFFFFFFFFFFFFFFFFFFFFFFFFFFFFFFFFFFFFFFFFFFFFFFFFFFFFFFFFFFFFFFFFFFFFFFFFFFFFFFFFFFFFFFFFFFFFFFFFFFFFFFFFFFFFFFFFFFFFFFFFFFFFFFFFFFFFFFFFFFFFFFFFFFFFFFFFFFFFFFFFFFFFFFFFFFFFFFFFFFFFFFFFFFFFFFFFFFFFFFFFFFFFFFFFFFFFFFFF000000FFFFFF00FFFFFF00FFFF
310
FF00FFFFFFFF00FFFFFF00FFFFFF000000FFFF00FF0000000000000000000000000000000000000000000000000000FF00FFFFFFFF00FFFFFFFFFFFFFFFFFFFFFFFFFFFFFF00000000000000000000FFFFFFFFFFFF00FFFFFFFFFFFFFFFFFFFFFFFFFFFFFF00000000000000000000FFFFFFFFFFFF00FFFFFFFFFFFFFFFFFF
310
FFFFFFFFFFFF00000000000000000000FFFFFFFFFF0000FFFFFFFFFFFFFFFFFFFFFFFFFFFFFFFFFFFFFFFFFFFFFFFF0000FFFFFFFFFF00FFFFFFFFFFFFFFFFFFFFFFFFFFFFFFFFFFFFFFFFFFFFFFFF00FFFFFFFFFFFF00FFFFFFFFFFFFFFFFFFFFFFFFFFFFFFFFFFFFFFFFFFFFFFFF00FFFFFFFFFFFF00FFFFFFFFFFFFFFFF
310
FFFFFFFFFFFFFFFFFFFFFFFFFFFFFFFF00FFFFFFFFFF0000FFFFFFFFFFFFFFFFFFFFFFFFFFFFFFFFFFFFFFFFFFFFFFFF0000FFFFFFFFFF00FFFFFFFFFFFFFFFFFFFFFFFFFFFFFFFFFFFFFFFFFFFFFFFF00FFFFFFFFFFFF00FFFFFFFFFFFFFFFFFFFFFFFFFFFFFFFFFFFFFFFFFFFFFFFF00FFFFFFFFFFFF00FFFFFFFFFFFFFF
310
FFFFFFFFFFFFFFFFFFFFFFFFFFFFFFFFFF00FFFFFFFFFFFF00FFFFFFFFFFFFFFFFFFFFFFFFFFFFFFFFFFFFFFFFFFFFFFFF00FFFFFFFFFF0000FFFFFFFFFFFFFFFFFFFFFFFFFFFFFFFFFFFFFFFFFFFFFFFF0000FFFFFFFFFF00FFFFFFFFFFFFFFFFFFFFFFFFFFFFFFFFFFFFFFFFFFFFFFFF00FFFFFFFFFFFF00FFFFFFFFFFFF
310
FFFFFFFFFFFFFFFFFFFFFFFFFFFFFFFFFFFF00FFFFFFFFFFFF00FFFFFFFFFFFFFFFFFFFFFFFFFFFFFFFFFFFFFFFFFFFFFFFF00FFFFFFFF00FF0000000000000000000000000000000000000000000000000000FF00FFFF000000FFFFFF00FFFFFF00FFFFFF00FFFFFFFF00FFFFFF00FFFFFF000000FFFFFFFFFFFFFFFFFFFF
310
FFFFFFFFFFFFFFFFFFFFFFFFFFFFFFFFFFFFFFFFFFFFFFFFFFFFFFFFFFFFFFFFFFFFFFFFFFFFFFFFFFFFFFFFFFFFFFFFFFFFFFFFFFFFFFFFFFFFFFFFFFFFFFFFFFFFFFFFFFFFFFFFFFFFFFFFFFFFFFFFFFFFFFFFFFFFFFFFFFFFFFFFFFFFFFFFFFFFFFFFFFFFFFFFFFFFFFFFFFFFFFFFFFFFFFFFFFFFFFFFFFFFFFFFFFFFFF
310
FFFFFFFFFFFFFFFFFFFFFFFFFFFFFFFFFFFFFFFFFFFFFFFFFFFFFFFFFFFFFFFFFFFFFFFFFFFFFFFFFFFFFFFFFFFFFFFFFFFFFFFFFFFFFFFF
102
{BLKREFS
331
BDB
331
130D
102
}
1001
AcDbDynamicBlockGUID
1000
{6B54ED01-746B-40FA-A645-46CE0B8CF69F}
1001
AcDbBlockRepETag
1070
     1
1071
      561
1001
ACAD
1000
DesignCenter Data
1002
{
1070
     1
1070
     4
1002
}
  0
BLOCK_RECORD
  5
B0B
330
1
100
AcDbSymbolTableRecord
100
AcDbBlockTableRecord
  2
_Closed
340
0
  0
BLOCK_RECORD
  5
BD8
330
1
100
AcDbSymbolTableRecord
100
AcDbBlockTableRecord
  2
A4横_kda1
340
0
310
2800000020000000200000000100080000000000000400000000000000000000000000000000000000000000000080000080000000808000800000008000800080800000C0C0C000C0DCC000F0CAA6000020400000206000002080000020A0000020C0000020E00000400000004020000040400000406000004080000040A0
310
000040C0000040E00000600000006020000060400000606000006080000060A0000060C0000060E00000800000008020000080400000806000008080000080A0000080C0000080E00000A0000000A0200000A0400000A0600000A0800000A0A00000A0C00000A0E00000C0000000C0200000C0400000C0600000C0800000C0
310
A00000C0C00000C0E00000E0000000E0200000E0400000E0600000E0800000E0A00000E0C00000E0E00040000000400020004000400040006000400080004000A0004000C0004000E00040200000402020004020400040206000402080004020A0004020C0004020E000404000004040200040404000404060004040800040
310
40A0004040C0004040E00040600000406020004060400040606000406080004060A0004060C0004060E00040800000408020004080400040806000408080004080A0004080C0004080E00040A0000040A0200040A0400040A0600040A0800040A0A00040A0C00040A0E00040C0000040C0200040C0400040C0600040C08000
310
40C0A00040C0C00040C0E00040E0000040E0200040E0400040E0600040E0800040E0A00040E0C00040E0E00080000000800020008000400080006000800080008000A0008000C0008000E00080200000802020008020400080206000802080008020A0008020C0008020E00080400000804020008040400080406000804080
310
008040A0008040C0008040E00080600000806020008060400080606000806080008060A0008060C0008060E00080800000808020008080400080806000808080008080A0008080C0008080E00080A0000080A0200080A0400080A0600080A0800080A0A00080A0C00080A0E00080C0000080C0200080C0400080C0600080C0
310
800080C0A00080C0C00080C0E00080E0000080E0200080E0400080E0600080E0800080E0A00080E0C00080E0E000C0000000C0002000C0004000C0006000C0008000C000A000C000C000C000E000C0200000C0202000C0204000C0206000C0208000C020A000C020C000C020E000C0400000C0402000C0404000C0406000C0
310
408000C040A000C040C000C040E000C0600000C0602000C0604000C0606000C0608000C060A000C060C000C060E000C0800000C0802000C0804000C0806000C0808000C080A000C080C000C080E000C0A00000C0A02000C0A04000C0A06000C0A08000C0A0A000C0A0C000C0A0E000C0C00000C0C02000C0C04000C0C06000
310
C0C08000C0C0A000F0FBFF00A4A0A000808080000000FF0000FF000000FFFF00FF000000FF00FF00FFFF0000FFFFFF00FFFFFFFFFFFFFFFFFFFFFFFFFFFFFFFFFFFFFFFFFFFFFFFFFFFFFFFFFFFFFFFFFFFFFFFFFFFFFFFFFFFFFFFFFFFFFFFFFFFFFFFFFFFFFFFFFFFFFFFFFFFFFFFFFFFFFFFFFFFFFFFFFFFFFFFFFFFFFF
310
FFFFFFFFFFFFFFFFFFFFFFFFFFFFFFFFFFFFFFFFFFFFFFFFFFFFFFFFFFFFFFFFFFFFFFFFFFFFFFFFFFFFFFFFFFFFFFFFFFFFFFFFFFFFFFFFFFFFFFFFFFFFFFFFFFFFFFFFFFFFFFFFFFFFFFFFFFFFFFFFFFFFFFFFFFFFFFFFFFFFFFFFFFFFFFFFFFFFFFFFFFFFFFFFFFFFFFFFFFFFFFFFFFFF000000FFFFFF00FFFFFF00FFFF
310
FF00FFFFFFFF00FFFFFF00FFFFFF000000FFFF00FF0000000000000000000000000000000000000000000000000000FF00FFFFFFFF00FFFFFFFFFFFFFFFFFFFFFFFFFFFFFF00000000000000000000FFFFFFFFFFFF00FFFFFFFFFFFFFFFFFFFFFFFFFFFFFF00000000000000000000FFFFFFFFFFFF00FFFFFFFFFFFFFFFFFF
310
FFFFFFFFFFFF00000000000000000000FFFFFFFFFF0000FFFFFFFFFFFFFFFFFFFFFFFFFFFFFFFFFFFFFFFFFFFFFFFF0000FFFFFFFFFF00FFFFFFFFFFFFFFFFFFFFFFFFFFFFFFFFFFFFFFFFFFFFFFFF00FFFFFFFFFFFF00FFFFFFFFFFFFFFFFFFFFFFFFFFFFFFFFFFFFFFFFFFFFFFFF00FFFFFFFFFFFF00FFFFFFFFFFFFFFFF
310
FFFFFFFFFFFFFFFFFFFFFFFFFFFFFFFF00FFFFFFFFFFFF00FFFFFFFFFFFFFFFFFFFFFFFFFFFFFFFFFFFFFFFFFFFFFFFF00FFFFFFFFFF0000FFFFFFFFFFFFFFFFFFFFFFFFFFFFFFFFFFFFFFFFFFFFFFFF0000FFFFFFFFFF00FFFFFFFFFFFFFFFFFFFFFFFFFFFFFFFFFFFFFFFFFFFFFFFF00FFFFFFFFFFFF00FFFFFFFFFFFFFF
310
FFFFFFFFFFFFFFFFFFFFFFFFFFFFFFFFFF00FFFFFFFFFFFF00FFFFFFFFFFFFFFFFFFFFFFFFFFFFFFFFFFFFFFFFFFFFFFFF00FFFFFFFFFF0000FFFFFFFFFFFFFFFFFFFFFFFFFFFFFFFFFFFFFFFFFFFFFFFF0000FFFFFFFFFF00FFFFFFFFFFFFFFFFFFFFFFFFFFFFFFFFFFFFFFFFFFFFFFFF00FFFFFFFFFFFF00FFFFFFFFFFFF
310
FFFFFFFFFFFFFFFFFFFFFFFFFFFFFFFFFFFF00FFFFFFFFFFFF00FFFFFFFFFFFFFFFFFFFFFFFFFFFFFFFFFFFFFFFFFFFFFFFF00FFFFFFFF00FF0000000000000000000000000000000000000000000000000000FF00FFFF000000FFFFFF00FFFFFF00FFFFFF00FFFFFFFF00FFFFFF00FFFFFF000000FFFFFFFFFFFFFFFFFFFF
310
FFFFFFFFFFFFFFFFFFFFFFFFFFFFFFFFFFFFFFFFFFFFFFFFFFFFFFFFFFFFFFFFFFFFFFFFFFFFFFFFFFFFFFFFFFFFFFFFFFFFFFFFFFFFFFFFFFFFFFFFFFFFFFFFFFFFFFFFFFFFFFFFFFFFFFFFFFFFFFFFFFFFFFFFFFFFFFFFFFFFFFFFFFFFFFFFFFFFFFFFFFFFFFFFFFFFFFFFFFFFFFFFFFFFFFFFFFFFFFFFFFFFFFFFFFFFFF
310
FFFFFFFFFFFFFFFFFFFFFFFFFFFFFFFFFFFFFFFFFFFFFFFFFFFFFFFFFFFFFFFFFFFFFFFFFFFFFFFFFFFFFFFFFFFFFFFFFFFFFFFFFFFFFFFF
1001
ACAD
1000
DesignCenter Data
1002
{
1070
     1
1070
     4
1002
}
  0
BLOCK_RECORD
  5
13BC
330
1
100
AcDbSymbolTableRecord
100
AcDbBlockTableRecord
  2
*D4
340
0
  0
BLOCK_RECORD
  5
1426
330
1
100
AcDbSymbolTableRecord
100
AcDbBlockTableRecord
  2
*D5
340
0
  0
BLOCK_RECORD
  5
1450
330
1
100
AcDbSymbolTableRecord
100
AcDbBlockTableRecord
  2
*D6
340
0
  0
BLOCK_RECORD
  5
1468
330
1
100
AcDbSymbolTableRecord
100
AcDbBlockTableRecord
  2
*D7
340
0
  0
BLOCK_RECORD
  5
1480
330
1
100
AcDbSymbolTableRecord
100
AcDbBlockTableRecord
  2
*D8
340
0
  0
BLOCK_RECORD
  5
16EF
330
1
100
AcDbSymbolTableRecord
100
AcDbBlockTableRecord
  2
*D9
340
0
  0
BLOCK_RECORD
  5
19AC
102
{ACAD_XDICTIONARY
360
1A13
102
}
330
1
100
AcDbSymbolTableRecord
100
AcDbBlockTableRecord
  2
A$C15F051E2
340
0
1001
ACAD
1000
DesignCenter Data
1002
{
1070
     1
1070
     4
1002
}
  0
BLOCK_RECORD
  5
1BBC
330
1
100
AcDbSymbolTableRecord
100
AcDbBlockTableRecord
  2
*D11
340
0
  0
BLOCK_RECORD
  5
1C0C
330
1
100
AcDbSymbolTableRecord
100
AcDbBlockTableRecord
  2
*D12
340
0
  0
BLOCK_RECORD
  5
1D19
330
1
100
AcDbSymbolTableRecord
100
AcDbBlockTableRecord
  2
*D13
340
0
  0
ENDTAB
  0
ENDSEC
  0
SECTION
  2
BLOCKS
  0
BLOCK
  5
20
330
1F
100
AcDbEntity
  8
0
100
AcDbBlockBegin
  2
*Model_Space
 70
     0
 10
0.0
 20
0.0
 30
0.0
  3
*Model_Space
  1

  0
ENDBLK
  5
21
330
1F
100
AcDbEntity
  8
0
100
AcDbBlockEnd
  0
BLOCK
  5
5A
330
58
100
AcDbEntity
 67
     1
  8
0
100
AcDbBlockBegin
  2
*Paper_Space
 70
     0
 10
0.0
 20
0.0
 30
0.0
  3
*Paper_Space
  1

  0
ENDBLK
  5
5B
330
58
100
AcDbEntity
 67
     1
  8
0
100
AcDbBlockEnd
  0
BLOCK
  5
2E4
330
2E0
100
AcDbEntity
  8
0
100
AcDbBlockBegin
  2
_Open30
 70
     0
 10
0.0
 20
0.0
 30
0.0
  3
_Open30
  1

  0
LINE
  5
2E1
330
2E0
100
AcDbEntity
  8
0
  6
ByBlock
 62
     0
370
    -2
100
AcDbLine
 10
-1.0
 20
0.26794919
 30
0.0
 11
0.0
 21
0.0
 31
0.0
  0
LINE
  5
2E2
330
2E0
100
AcDbEntity
  8
0
  6
ByBlock
 62
     0
370
    -2
100
AcDbLine
 10
0.0
 20
0.0
 30
0.0
 11
-1.0
 21
-0.26794919
 31
0.0
  0
LINE
  5
2E3
330
2E0
100
AcDbEntity
  8
0
  6
ByBlock
 62
     0
370
    -2
100
AcDbLine
 10
0.0
 20
0.0
 30
0.0
 11
-1.0
 21
0.0
 31
0.0
  0
ENDBLK
  5
2E5
330
2E0
100
AcDbEntity
  8
0
100
AcDbBlockEnd
  0
BLOCK
  5
8AC
330
8AB
100
AcDbEntity
  8
0
100
AcDbBlockBegin
  2
A4横（ねじ）
 70
     0
 10
0.0
 20
0.0
 30
0.0
  3
A4横（ねじ）
  1

  0
LINE
  5
E8B
330
8AB
100
AcDbEntity
  8
0
100
AcDbLine
 10
15.0
 20
15.0
 30
0.0
 11
15.00000000000001
 21
195.0
 31
0.0
1001
AcDbBlockRepETag
1070
     1
1071
        0
1005
E8B
  0
LINE
  5
E8C
330
8AB
100
AcDbEntity
  8
0
100
AcDbLine
 10
0.0000000000000001
 20
0.0000000000000018
 30
0.0
 11
0.0000000000000008
 21
15.0
 31
0.0
1001
AcDbBlockRepETag
1070
     1
1071
        1
1005
E8C
  0
LINE
  5
E8D
330
8AB
100
AcDbEntity
  8
0
100
AcDbLine
 10
0.0000000000000091
 20
195.0
 30
0.0
 11
0.0000000000000098
 21
210.0
 31
0.0
1001
AcDbBlockRepETag
1070
     1
1071
        2
1005
E8D
  0
LINE
  5
E8E
330
8AB
100
AcDbEntity
  8
0
100
AcDbLine
 10
15.00000000000001
 20
195.0
 30
0.0
 11
282.0
 21
195.0
 31
0.0
1001
AcDbBlockRepETag
1070
     1
1071
        3
1005
E8E
  0
LINE
  5
E8F
330
8AB
100
AcDbEntity
  8
0
100
AcDbLine
 10
0.0000000000000098
 20
210.0
 30
0.0
 11
15.00000000000001
 21
210.0
 31
0.0
1001
AcDbBlockRepETag
1070
     1
1071
        4
1005
E8F
  0
LINE
  5
E90
330
8AB
100
AcDbEntity
  8
0
100
AcDbLine
 10
282.0
 20
210.0
 30
0.0
 11
297.0
 21
210.0
 31
0.0
1001
AcDbBlockRepETag
1070
     1
1071
        5
1005
E90
  0
LINE
  5
E91
330
8AB
100
AcDbEntity
  8
0
100
AcDbLine
 10
282.0
 20
195.0
 30
0.0
 11
281.9999999999999
 21
15.0
 31
0.0
1001
AcDbBlockRepETag
1070
     1
1071
        6
1005
E91
  0
LINE
  5
E92
330
8AB
100
AcDbEntity
  8
0
100
AcDbLine
 10
297.0
 20
210.0
 30
0.0
 11
297.0
 21
195.0
 31
0.0
1001
AcDbBlockRepETag
1070
     1
1071
        7
1005
E92
  0
LINE
  5
E93
330
8AB
100
AcDbEntity
  8
0
100
AcDbLine
 10
296.9999999999999
 20
15.0
 30
0.0
 11
296.9999999999999
 21
0.0
 31
0.0
1001
AcDbBlockRepETag
1070
     1
1071
        8
1005
E93
  0
LINE
  5
E94
330
8AB
100
AcDbEntity
  8
0
100
AcDbLine
 10
281.9999999999999
 20
15.0
 30
0.0
 11
15.0
 21
15.0
 31
0.0
1001
AcDbBlockRepETag
1070
     1
1071
        9
1005
E94
  0
LINE
  5
E95
330
8AB
100
AcDbEntity
  8
0
100
AcDbLine
 10
296.9999999999999
 20
0.0
 30
0.0
 11
281.9999999999999
 21
0.0000000000000001
 31
0.0
1001
AcDbBlockRepETag
1070
     1
1071
       10
1005
E95
  0
LINE
  5
E96
330
8AB
100
AcDbEntity
  8
0
100
AcDbLine
 10
15.0
 20
0.0000000000000017
 30
0.0
 11
0.0
 21
0.0000000000000018
 31
0.0
1001
AcDbBlockRepETag
1070
     1
1071
       11
1005
E96
  0
LINE
  5
E97
330
8AB
100
AcDbEntity
  8
0
100
AcDbLine
 10
281.9999999999999
 20
30.00000000000001
 30
0.0
 11
212.096194219452
 21
30.00000000000002
 31
0.0
1001
AcDbBlockRepETag
1070
     1
1071
       12
1005
E97
  0
LINE
  5
E98
330
8AB
100
AcDbEntity
  8
0
100
AcDbLine
 10
181.9999999999999
 20
50.0
 30
0.0
 11
181.9999999999999
 21
15.0
 31
0.0
1001
AcDbBlockRepETag
1070
     1
1071
       13
1005
E98
  0
LINE
  5
E99
330
8AB
100
AcDbEntity
  8
0
100
AcDbLine
 10
181.9999999999999
 20
40.0
 30
0.0
 11
281.9999999999999
 21
40.0
 31
0.0
1001
AcDbBlockRepETag
1070
     1
1071
       14
1005
E99
  0
LINE
  5
E9A
330
8AB
100
AcDbEntity
  8
0
100
AcDbLine
 10
181.9999999999999
 20
35.00000000000002
 30
0.0
 11
212.096194219452
 21
35.0
 31
0.0
1001
AcDbBlockRepETag
1070
     1
1071
       15
1005
E9A
  0
LINE
  5
E9B
330
8AB
100
AcDbEntity
  8
0
100
AcDbLine
 10
181.9999999999999
 20
30.00000000000002
 30
0.0
 11
212.096194219452
 21
30.0
 31
0.0
1001
AcDbBlockRepETag
1070
     1
1071
       16
1005
E9B
  0
LINE
  5
E9C
330
8AB
100
AcDbEntity
  8
0
100
AcDbLine
 10
181.9999999999999
 20
25.00000000000002
 30
0.0
 11
212.096194219452
 21
25.00000000000001
 31
0.0
1001
AcDbBlockRepETag
1070
     1
1071
       17
1005
E9C
  0
LINE
  5
E9D
330
8AB
100
AcDbEntity
  8
0
100
AcDbLine
 10
181.9999999999999
 20
20.00000000000001
 30
0.0
 11
212.096194219452
 21
20.00000000000001
 31
0.0
1001
AcDbBlockRepETag
1070
     1
1071
       18
1005
E9D
  0
LINE
  5
E9E
330
8AB
100
AcDbEntity
  8
0
100
AcDbLine
 10
181.9999999999999
 20
50.0
 30
0.0
 11
281.9999999999999
 21
50.0
 31
0.0
1001
AcDbBlockRepETag
1070
     1
1071
       19
1005
E9E
  0
LINE
  5
E9F
330
8AB
100
AcDbEntity
  8
0
100
AcDbLine
 10
212.096194219452
 20
50.0
 30
0.0
 11
212.096194219452
 21
15.00000000000001
 31
0.0
1001
AcDbBlockRepETag
1070
     1
1071
       20
1005
E9F
  0
LINE
  5
EA0
330
8AB
100
AcDbEntity
  8
0
100
AcDbLine
 10
148.4999999999999
 20
15.0
 30
0.0
 11
148.4999999999999
 21
10.0
 31
0.0
1001
AcDbBlockRepETag
1070
     1
1071
       21
1005
EA0
  0
LINE
  5
EA1
330
8AB
100
AcDbEntity
  8
0
100
AcDbLine
 10
192.9999999999999
 20
15.0
 30
0.0
 11
192.9999999999999
 21
10.0
 31
0.0
1001
AcDbBlockRepETag
1070
     1
1071
       22
1005
EA1
  0
LINE
  5
EA2
330
8AB
100
AcDbEntity
  8
0
100
AcDbLine
 10
237.5
 20
15.0
 30
0.0
 11
237.5
 21
10.0
 31
0.0
1001
AcDbBlockRepETag
1070
     1
1071
       23
1005
EA2
  0
LINE
  5
EA3
330
8AB
100
AcDbEntity
  8
0
100
AcDbLine
 10
104.0
 20
15.0
 30
0.0
 11
104.0
 21
10.0
 31
0.0
1001
AcDbBlockRepETag
1070
     1
1071
       24
1005
EA3
  0
LINE
  5
EA4
330
8AB
100
AcDbEntity
  8
0
100
AcDbLine
 10
59.49999999999997
 20
15.0
 30
0.0
 11
59.49999999999997
 21
10.0
 31
0.0
1001
AcDbBlockRepETag
1070
     1
1071
       25
1005
EA4
  0
LINE
  5
EA5
330
8AB
100
AcDbEntity
  8
0
100
AcDbLine
 10
15.0
 20
105.0
 30
0.0
 11
10.0
 21
105.0
 31
0.0
1001
AcDbBlockRepETag
1070
     1
1071
       26
1005
EA5
  0
LINE
  5
EA6
330
8AB
100
AcDbEntity
  8
0
100
AcDbLine
 10
15.0
 20
150.0
 30
0.0
 11
10.0
 21
150.0
 31
0.0
1001
AcDbBlockRepETag
1070
     1
1071
       27
1005
EA6
  0
LINE
  5
EA7
330
8AB
100
AcDbEntity
  8
0
100
AcDbLine
 10
15.0
 20
60.0
 30
0.0
 11
10.0
 21
60.0
 31
0.0
1001
AcDbBlockRepETag
1070
     1
1071
       28
1005
EA7
  0
LINE
  5
EA8
330
8AB
100
AcDbEntity
  8
0
100
AcDbLine
 10
148.4999999999999
 20
195.0
 30
0.0
 11
148.4999999999999
 21
200.0
 31
0.0
1001
AcDbBlockRepETag
1070
     1
1071
       29
1005
EA8
  0
LINE
  5
EA9
330
8AB
100
AcDbEntity
  8
0
100
AcDbLine
 10
192.9999999999999
 20
195.0
 30
0.0
 11
192.9999999999999
 21
200.0
 31
0.0
1001
AcDbBlockRepETag
1070
     1
1071
       30
1005
EA9
  0
LINE
  5
EAA
330
8AB
100
AcDbEntity
  8
0
100
AcDbLine
 10
237.5
 20
195.0
 30
0.0
 11
237.5
 21
200.0
 31
0.0
1001
AcDbBlockRepETag
1070
     1
1071
       31
1005
EAA
  0
LINE
  5
EAB
330
8AB
100
AcDbEntity
  8
0
100
AcDbLine
 10
104.0
 20
195.0
 30
0.0
 11
104.0
 21
200.0
 31
0.0
1001
AcDbBlockRepETag
1070
     1
1071
       32
1005
EAB
  0
LINE
  5
EAC
330
8AB
100
AcDbEntity
  8
0
100
AcDbLine
 10
59.49999999999997
 20
195.0
 30
0.0
 11
59.49999999999997
 21
200.0
 31
0.0
1001
AcDbBlockRepETag
1070
     1
1071
       33
1005
EAC
  0
LINE
  5
EAD
330
8AB
100
AcDbEntity
  8
0
100
AcDbLine
 10
281.9999999999999
 20
105.0
 30
0.0
 11
287.0
 21
105.0
 31
0.0
1001
AcDbBlockRepETag
1070
     1
1071
       34
1005
EAD
  0
LINE
  5
EAE
330
8AB
100
AcDbEntity
  8
0
100
AcDbLine
 10
281.9999999999999
 20
150.0
 30
0.0
 11
287.0
 21
150.0
 31
0.0
1001
AcDbBlockRepETag
1070
     1
1071
       35
1005
EAE
  0
LINE
  5
EAF
330
8AB
100
AcDbEntity
  8
0
100
AcDbLine
 10
281.9999999999999
 20
60.0
 30
0.0
 11
287.0
 21
60.0
 31
0.0
1001
AcDbBlockRepETag
1070
     1
1071
       36
1005
EAF
  0
MTEXT
  5
EB0
330
8AB
100
AcDbEntity
  8
0
100
AcDbMText
 10
37.25
 20
197.5
 30
0.0
 40
1.6
 41
44.49999999999996
 71
     5
 72
     5
  1
{\Ftxt|c128;1}
 73
     1
 44
1.0
1001
AcDbBlockRepETag
1070
     1
1071
       37
1005
EB0
1001
ACAD
1000
MTEXTBEGIN
1070
    73
1070
     1
1070
    44
1040
1.0
1070
    74
1070
     0
1000
MTEXTEND
1000
ACAD_MTEXT_DEFINED_HEIGHT_BEGIN
1070
    46
1040
5.0
1000
ACAD_MTEXT_DEFINED_HEIGHT_END
  0
MTEXT
  5
EB1
330
8AB
100
AcDbEntity
  8
0
100
AcDbMText
 10
81.74999999999995
 20
197.5
 30
0.0
 40
1.6
 41
44.49999999999996
 71
     5
 72
     5
  1
{\Ftxt|c128;2}
 73
     1
 44
1.0
1001
AcDbBlockRepETag
1070
     1
1071
       38
1005
EB1
1001
ACAD
1000
MTEXTBEGIN
1070
    73
1070
     1
1070
    44
1040
1.0
1070
    74
1070
     0
1000
MTEXTEND
1000
ACAD_MTEXT_DEFINED_HEIGHT_BEGIN
1070
    46
1040
5.0
1000
ACAD_MTEXT_DEFINED_HEIGHT_END
  0
MTEXT
  5
EB2
330
8AB
100
AcDbEntity
  8
0
100
AcDbMText
 10
126.2499999999999
 20
197.5
 30
0.0
 40
1.6
 41
44.49999999999996
 71
     5
 72
     5
  1
{\Ftxt|c128;3}
 73
     1
 44
1.0
1001
AcDbBlockRepETag
1070
     1
1071
       39
1005
EB2
1001
ACAD
1000
MTEXTBEGIN
1070
    73
1070
     1
1070
    44
1040
1.0
1070
    74
1070
     0
1000
MTEXTEND
1000
ACAD_MTEXT_DEFINED_HEIGHT_BEGIN
1070
    46
1040
5.0
1000
ACAD_MTEXT_DEFINED_HEIGHT_END
  0
MTEXT
  5
EB3
330
8AB
100
AcDbEntity
  8
0
100
AcDbMText
 10
170.7499999999999
 20
197.5
 30
0.0
 40
1.6
 41
44.49999999999996
 71
     5
 72
     5
  1
{\Ftxt|c128;4}
 73
     1
 44
1.0
1001
AcDbBlockRepETag
1070
     1
1071
       40
1005
EB3
1001
ACAD
1000
MTEXTBEGIN
1070
    73
1070
     1
1070
    44
1040
1.0
1070
    74
1070
     0
1000
MTEXTEND
1000
ACAD_MTEXT_DEFINED_HEIGHT_BEGIN
1070
    46
1040
5.0
1000
ACAD_MTEXT_DEFINED_HEIGHT_END
  0
MTEXT
  5
EB4
330
8AB
100
AcDbEntity
  8
0
100
AcDbMText
 10
215.2499999999999
 20
197.5
 30
0.0
 40
1.6
 41
44.49999999999996
 71
     5
 72
     5
  1
{\Ftxt|c128;5}
 73
     1
 44
1.0
1001
AcDbBlockRepETag
1070
     1
1071
       41
1005
EB4
1001
ACAD
1000
MTEXTBEGIN
1070
    73
1070
     1
1070
    44
1040
1.0
1070
    74
1070
     0
1000
MTEXTEND
1000
ACAD_MTEXT_DEFINED_HEIGHT_BEGIN
1070
    46
1040
5.0
1000
ACAD_MTEXT_DEFINED_HEIGHT_END
  0
MTEXT
  5
EB5
330
8AB
100
AcDbEntity
  8
0
100
AcDbMText
 10
259.75
 20
197.5
 30
0.0
 40
1.6
 41
44.49999999999996
 71
     5
 72
     5
  1
{\Ftxt|c128;6}
 73
     1
 44
1.0
1001
AcDbBlockRepETag
1070
     1
1071
       42
1005
EB5
1001
ACAD
1000
MTEXTBEGIN
1070
    73
1070
     1
1070
    44
1040
1.0
1070
    74
1070
     0
1000
MTEXTEND
1000
ACAD_MTEXT_DEFINED_HEIGHT_BEGIN
1070
    46
1040
5.0
1000
ACAD_MTEXT_DEFINED_HEIGHT_END
  0
MTEXT
  5
EB6
330
8AB
100
AcDbEntity
  8
0
100
AcDbMText
 10
37.25
 20
12.5
 30
0.0
 40
1.6
 41
44.49999999999996
 71
     5
 72
     5
  1
{\Ftxt|c128;1}
 73
     1
 44
1.0
1001
AcDbBlockRepETag
1070
     1
1071
       43
1005
EB6
1001
ACAD
1000
MTEXTBEGIN
1070
    73
1070
     1
1070
    44
1040
1.0
1070
    74
1070
     0
1000
MTEXTEND
1000
ACAD_MTEXT_DEFINED_HEIGHT_BEGIN
1070
    46
1040
5.0
1000
ACAD_MTEXT_DEFINED_HEIGHT_END
  0
MTEXT
  5
EB7
330
8AB
100
AcDbEntity
  8
0
100
AcDbMText
 10
81.74999999999995
 20
12.5
 30
0.0
 40
1.6
 41
44.49999999999996
 71
     5
 72
     5
  1
{\Ftxt|c128;2}
 73
     1
 44
1.0
1001
AcDbBlockRepETag
1070
     1
1071
       44
1005
EB7
1001
ACAD
1000
MTEXTBEGIN
1070
    73
1070
     1
1070
    44
1040
1.0
1070
    74
1070
     0
1000
MTEXTEND
1000
ACAD_MTEXT_DEFINED_HEIGHT_BEGIN
1070
    46
1040
5.0
1000
ACAD_MTEXT_DEFINED_HEIGHT_END
  0
MTEXT
  5
EB8
330
8AB
100
AcDbEntity
  8
0
100
AcDbMText
 10
126.2499999999999
 20
12.5
 30
0.0
 40
1.6
 41
44.49999999999996
 71
     5
 72
     5
  1
{\Ftxt|c128;3}
 73
     1
 44
1.0
1001
AcDbBlockRepETag
1070
     1
1071
       45
1005
EB8
1001
ACAD
1000
MTEXTBEGIN
1070
    73
1070
     1
1070
    44
1040
1.0
1070
    74
1070
     0
1000
MTEXTEND
1000
ACAD_MTEXT_DEFINED_HEIGHT_BEGIN
1070
    46
1040
5.0
1000
ACAD_MTEXT_DEFINED_HEIGHT_END
  0
MTEXT
  5
EB9
330
8AB
100
AcDbEntity
  8
0
100
AcDbMText
 10
170.7499999999999
 20
12.5
 30
0.0
 40
1.6
 41
44.49999999999996
 71
     5
 72
     5
  1
{\Ftxt|c128;4}
 73
     1
 44
1.0
1001
AcDbBlockRepETag
1070
     1
1071
       46
1005
EB9
1001
ACAD
1000
MTEXTBEGIN
1070
    73
1070
     1
1070
    44
1040
1.0
1070
    74
1070
     0
1000
MTEXTEND
1000
ACAD_MTEXT_DEFINED_HEIGHT_BEGIN
1070
    46
1040
5.0
1000
ACAD_MTEXT_DEFINED_HEIGHT_END
  0
MTEXT
  5
EBA
330
8AB
100
AcDbEntity
  8
0
100
AcDbMText
 10
215.2499999999999
 20
12.5
 30
0.0
 40
1.6
 41
44.49999999999996
 71
     5
 72
     5
  1
{\Ftxt|c128;5}
 73
     1
 44
1.0
1001
AcDbBlockRepETag
1070
     1
1071
       47
1005
EBA
1001
ACAD
1000
MTEXTBEGIN
1070
    73
1070
     1
1070
    44
1040
1.0
1070
    74
1070
     0
1000
MTEXTEND
1000
ACAD_MTEXT_DEFINED_HEIGHT_BEGIN
1070
    46
1040
5.0
1000
ACAD_MTEXT_DEFINED_HEIGHT_END
  0
MTEXT
  5
EBB
330
8AB
100
AcDbEntity
  8
0
100
AcDbMText
 10
259.75
 20
12.5
 30
0.0
 40
1.6
 41
44.49999999999996
 71
     5
 72
     5
  1
{\Ftxt|c128;6}
 73
     1
 44
1.0
1001
AcDbBlockRepETag
1070
     1
1071
       48
1005
EBB
1001
ACAD
1000
MTEXTBEGIN
1070
    73
1070
     1
1070
    44
1040
1.0
1070
    74
1070
     0
1000
MTEXTEND
1000
ACAD_MTEXT_DEFINED_HEIGHT_BEGIN
1070
    46
1040
5.0
1000
ACAD_MTEXT_DEFINED_HEIGHT_END
  0
MTEXT
  5
EBC
330
8AB
100
AcDbEntity
  8
0
100
AcDbMText
 10
12.5
 20
172.5
 30
0.0
 40
1.6
 41
4.999999999999992
 71
     5
 72
     5
  1
{\Ftxt|c128;A}
 73
     1
 44
1.0
1001
AcDbBlockRepETag
1070
     1
1071
       49
1005
EBC
1001
ACAD
1000
MTEXTBEGIN
1070
    73
1070
     1
1070
    44
1040
1.0
1070
    74
1070
     0
1000
MTEXTEND
1000
ACAD_MTEXT_DEFINED_HEIGHT_BEGIN
1070
    46
1040
45.0
1000
ACAD_MTEXT_DEFINED_HEIGHT_END
  0
MTEXT
  5
EBD
330
8AB
100
AcDbEntity
  8
0
100
AcDbMText
 10
12.5
 20
127.5
 30
0.0
 40
1.6
 41
4.999999999999992
 71
     5
 72
     5
  1
{\Ftxt|c128;B}
 73
     1
 44
1.0
1001
AcDbBlockRepETag
1070
     1
1071
       50
1005
EBD
1001
ACAD
1000
MTEXTBEGIN
1070
    73
1070
     1
1070
    44
1040
1.0
1070
    74
1070
     0
1000
MTEXTEND
1000
ACAD_MTEXT_DEFINED_HEIGHT_BEGIN
1070
    46
1040
45.0
1000
ACAD_MTEXT_DEFINED_HEIGHT_END
  0
MTEXT
  5
EBE
330
8AB
100
AcDbEntity
  8
0
100
AcDbMText
 10
12.5
 20
82.5
 30
0.0
 40
1.6
 41
4.999999999999992
 71
     5
 72
     5
  1
{\Ftxt|c128;C}
 73
     1
 44
1.0
1001
AcDbBlockRepETag
1070
     1
1071
       51
1005
EBE
1001
ACAD
1000
MTEXTBEGIN
1070
    73
1070
     1
1070
    44
1040
1.0
1070
    74
1070
     0
1000
MTEXTEND
1000
ACAD_MTEXT_DEFINED_HEIGHT_BEGIN
1070
    46
1040
45.0
1000
ACAD_MTEXT_DEFINED_HEIGHT_END
  0
MTEXT
  5
EBF
330
8AB
100
AcDbEntity
  8
0
100
AcDbMText
 10
12.5
 20
37.5
 30
0.0
 40
1.6
 41
4.999999999999992
 71
     5
 72
     5
  1
{\Ftxt|c128;D}
 73
     1
 44
1.0
1001
AcDbBlockRepETag
1070
     1
1071
       52
1005
EBF
1001
ACAD
1000
MTEXTBEGIN
1070
    73
1070
     1
1070
    44
1040
1.0
1070
    74
1070
     0
1000
MTEXTEND
1000
ACAD_MTEXT_DEFINED_HEIGHT_BEGIN
1070
    46
1040
45.0
1000
ACAD_MTEXT_DEFINED_HEIGHT_END
  0
MTEXT
  5
EC0
330
8AB
100
AcDbEntity
  8
0
100
AcDbMText
 10
284.5
 20
172.4999999999999
 30
0.0
 40
1.6
 41
4.999999999999992
 71
     5
 72
     5
  1
{\Ftxt|c128;A}
 73
     1
 44
1.0
1001
AcDbBlockRepETag
1070
     1
1071
       53
1005
EC0
1001
ACAD
1000
MTEXTBEGIN
1070
    73
1070
     1
1070
    44
1040
1.0
1070
    74
1070
     0
1000
MTEXTEND
1000
ACAD_MTEXT_DEFINED_HEIGHT_BEGIN
1070
    46
1040
45.0
1000
ACAD_MTEXT_DEFINED_HEIGHT_END
  0
MTEXT
  5
EC1
330
8AB
100
AcDbEntity
  8
0
100
AcDbMText
 10
284.5
 20
127.4999999999999
 30
0.0
 40
1.6
 41
4.999999999999992
 71
     5
 72
     5
  1
{\Ftxt|c128;B}
 73
     1
 44
1.0
1001
AcDbBlockRepETag
1070
     1
1071
       54
1005
EC1
1001
ACAD
1000
MTEXTBEGIN
1070
    73
1070
     1
1070
    44
1040
1.0
1070
    74
1070
     0
1000
MTEXTEND
1000
ACAD_MTEXT_DEFINED_HEIGHT_BEGIN
1070
    46
1040
45.0
1000
ACAD_MTEXT_DEFINED_HEIGHT_END
  0
MTEXT
  5
EC2
330
8AB
100
AcDbEntity
  8
0
100
AcDbMText
 10
284.5
 20
82.49999999999991
 30
0.0
 40
1.6
 41
4.999999999999992
 71
     5
 72
     5
  1
{\Ftxt|c128;C}
 73
     1
 44
1.0
1001
AcDbBlockRepETag
1070
     1
1071
       55
1005
EC2
1001
ACAD
1000
MTEXTBEGIN
1070
    73
1070
     1
1070
    44
1040
1.0
1070
    74
1070
     0
1000
MTEXTEND
1000
ACAD_MTEXT_DEFINED_HEIGHT_BEGIN
1070
    46
1040
45.0
1000
ACAD_MTEXT_DEFINED_HEIGHT_END
  0
MTEXT
  5
EC3
330
8AB
100
AcDbEntity
  8
0
100
AcDbMText
 10
284.5
 20
37.49999999999992
 30
0.0
 40
1.6
 41
4.999999999999992
 71
     5
 72
     5
  1
{\Ftxt|c128;D}
 73
     1
 44
1.0
1001
AcDbBlockRepETag
1070
     1
1071
       56
1005
EC3
1001
ACAD
1000
MTEXTBEGIN
1070
    73
1070
     1
1070
    44
1040
1.0
1070
    74
1070
     0
1000
MTEXTEND
1000
ACAD_MTEXT_DEFINED_HEIGHT_BEGIN
1070
    46
1040
45.0
1000
ACAD_MTEXT_DEFINED_HEIGHT_END
  0
CIRCLE
  5
EC4
330
8AB
100
AcDbEntity
  8
0
100
AcDbCircle
 10
192.0812866212884
 20
45.00834951764214
 30
0.0
 40
2.799999999999998
1001
AcDbBlockRepETag
1070
     1
1071
       57
1005
EC4
  0
CIRCLE
  5
EC5
330
8AB
100
AcDbEntity
  8
0
100
AcDbCircle
 10
192.0812866212884
 20
45.00834951764214
 30
0.0
 40
1.6
1001
AcDbBlockRepETag
1070
     1
1071
       58
1005
EC5
  0
LINE
  5
EC6
330
8AB
100
AcDbEntity
  8
0
100
AcDbLine
 10
197.2812866212884
 20
46.60834951764214
 30
0.0
 11
204.0812866212884
 21
47.80834951764214
 31
0.0
1001
AcDbBlockRepETag
1070
     1
1071
       59
1005
EC6
  0
LINE
  5
EC7
330
8AB
100
AcDbEntity
  8
0
100
AcDbLine
 10
197.2812866212884
 20
46.60834951764214
 30
0.0
 11
197.2812866212884
 21
43.40834951764214
 31
0.0
1001
AcDbBlockRepETag
1070
     1
1071
       60
1005
EC7
  0
LINE
  5
EC8
330
8AB
100
AcDbEntity
  8
0
100
AcDbLine
 10
204.0812866212884
 20
47.80834951764214
 30
0.0
 11
204.0812866212884
 21
42.20834951764214
 31
0.0
1001
AcDbBlockRepETag
1070
     1
1071
       61
1005
EC8
  0
LINE
  5
EC9
330
8AB
100
AcDbEntity
  8
0
100
AcDbLine
 10
197.2812866212884
 20
43.40834951764214
 30
0.0
 11
204.0812866212884
 21
42.20834951764214
 31
0.0
1001
AcDbBlockRepETag
1070
     1
1071
       62
1005
EC9
  0
LINE
  5
ECA
330
8AB
100
AcDbEntity
  8
0
100
AcDbLine
 10
192.0812866212884
 20
48.60834951764214
 30
0.0
 11
192.0812866212884
 21
41.40834951764214
 31
0.0
1001
AcDbBlockRepETag
1070
     1
1071
       63
1005
ECA
  0
LINE
  5
ECB
330
8AB
100
AcDbEntity
  8
0
100
AcDbLine
 10
188.5066509681369
 20
45.00834951764214
 30
0.0
 11
195.6524624469594
 21
45.00834951764214
 31
0.0
1001
AcDbBlockRepETag
1070
     1
1071
       64
1005
ECB
  0
LINE
  5
ECC
330
8AB
100
AcDbEntity
  8
0
100
AcDbLine
 10
196.4812866212884
 20
45.00834951764214
 30
0.0
 11
204.8812866212884
 21
45.00834951764214
 31
0.0
1001
AcDbBlockRepETag
1070
     1
1071
       65
1005
ECC
  0
MTEXT
  5
ECD
330
8AB
100
AcDbEntity
  8
0
100
AcDbMText
 10
212.096194219452
 20
29.00000000000001
 30
0.0
 40
1.0
 41
8.780474292418944
 71
     1
 72
     5
  1
{\fMS PGothic|b0|i0|c128|p50;　社　名}
 73
     1
 44
1.0
1001
AcDbBlockRepETag
1070
     1
1071
       66
1005
ECD
1001
ACAD
1000
MTEXTBEGIN
1070
    73
1070
     1
1070
    44
1040
1.0
1070
    74
1070
     0
1000
MTEXTEND
  0
MTEXT
  5
ECE
330
8AB
100
AcDbEntity
  8
0
100
AcDbMText
 10
212.096194219452
 20
39.0
 30
0.0
 40
1.0
 41
8.780474292418944
 71
     1
 72
     5
  1
{\fMS PGothic|b0|i0|c128|p50;　品 名 2}
 73
     1
 44
1.0
1001
AcDbBlockRepETag
1070
     1
1071
       67
1005
ECE
1001
ACAD
1000
MTEXTBEGIN
1070
    73
1070
     1
1070
    44
1040
1.0
1070
    74
1070
     0
1000
MTEXTEND
  0
MTEXT
  5
ECF
330
8AB
100
AcDbEntity
  8
0
100
AcDbMText
 10
212.096194219452
 20
49.00000000000001
 30
0.0
 40
1.0
 41
8.780474292418944
 71
     1
 72
     5
  1
{\fMS PGothic|b0|i0|c128|p50;　品 名 1}
 73
     1
 44
1.0
1001
AcDbBlockRepETag
1070
     1
1071
       68
1005
ECF
1001
ACAD
1000
MTEXTBEGIN
1070
    73
1070
     1
1070
    44
1040
1.0
1070
    74
1070
     0
1000
MTEXTEND
  0
MTEXT
  5
ED0
330
8AB
100
AcDbEntity
  8
0
100
AcDbMText
 10
181.9999999999999
 20
49.00000000000001
 30
0.0
 40
1.0
 41
8.780474292418944
 71
     1
 72
     5
  1
{\fMS PGothic|b0|i0|c128|p50;　図　法}
 73
     1
 44
1.0
1001
AcDbBlockRepETag
1070
     1
1071
       69
1005
ED0
1001
ACAD
1000
MTEXTBEGIN
1070
    73
1070
     1
1070
    44
1040
1.0
1070
    74
1070
     0
1000
MTEXTEND
  0
MTEXT
  5
ED1
330
8AB
100
AcDbEntity
  8
0
100
AcDbMText
 10
181.9999999999999
 20
34.00000000000002
 30
0.0
 40
1.0
 41
8.780474292418944
 71
     1
 72
     5
  1
{\fMS PGothic|b0|i0|c128|p50;　製　図}
 73
     1
 44
1.0
1001
AcDbBlockRepETag
1070
     1
1071
       70
1005
ED1
1001
ACAD
1000
MTEXTBEGIN
1070
    73
1070
     1
1070
    44
1040
1.0
1070
    74
1070
     0
1000
MTEXTEND
  0
MTEXT
  5
ED2
330
8AB
100
AcDbEntity
  8
0
100
AcDbMText
 10
181.9999999999999
 20
39.00000000000002
 30
0.0
 40
1.0
 41
8.780474292418944
 71
     1
 72
     5
  1
{\fMS PGothic|b0|i0|c128|p50;　尺　度}
 73
     1
 44
1.0
1001
AcDbBlockRepETag
1070
     1
1071
       71
1005
ED2
1001
ACAD
1000
MTEXTBEGIN
1070
    73
1070
     1
1070
    44
1040
1.0
1070
    74
1070
     0
1000
MTEXTEND
  0
MTEXT
  5
ED3
330
8AB
100
AcDbEntity
  8
0
100
AcDbMText
 10
221.4352159696109
 20
19.50000000000001
 30
0.0
 40
2.0
 41
57.3181449272716
 71
     1
 72
     5
  1
{\fMS Gothic|b0|i0|c128|p49;株式会社 ＫＤＡ\H0.5x; (ケーディーエー)}
 73
     1
 44
1.0
1001
AcDbBlockRepETag
1070
     1
1071
       72
1005
ED3
1001
ACAD
1000
MTEXTBEGIN
1070
    73
1070
     1
1070
    44
1040
1.0
1070
    74
1070
     0
1000
MTEXTEND
1000
ACAD_MTEXT_DEFINED_HEIGHT_BEGIN
1070
    46
1040
5.000000000000004
1000
ACAD_MTEXT_DEFINED_HEIGHT_END
  0
LINE
  5
ED4
330
8AB
100
AcDbEntity
  8
Layer_0
  6
Continuous
100
AcDbLine
 10
221.4007807079617
 20
27.12517191052416
 30
0.0
 11
223.1288162635173
 21
27.12517191052416
 31
0.0
1001
AcDbBlockRepETag
1070
     1
1071
       73
1005
ED4
  0
LINE
  5
ED5
330
8AB
100
AcDbEntity
  8
Layer_0
  6
Continuous
100
AcDbLine
 10
223.1288162635173
 20
27.12517191052416
 30
0.0
 11
223.1288162635173
 21
25.91219070809575
 31
0.0
1001
AcDbBlockRepETag
1070
     1
1071
       74
1005
ED5
  0
LINE
  5
ED6
330
8AB
100
AcDbEntity
  8
Layer_0
  6
Continuous
100
AcDbLine
 10
223.1288162635173
 20
25.32531070809568
 30
0.0
 11
223.1288162635173
 21
25.00906195496862
 31
0.0
1001
AcDbBlockRepETag
1070
     1
1071
       75
1005
ED6
  0
LINE
  5
ED7
330
8AB
100
AcDbEntity
  8
Layer_0
  6
Continuous
100
AcDbLine
 10
223.1288162635173
 20
25.00906195496862
 30
0.0
 11
224.9486740857394
 21
27.12517191052416
 31
0.0
1001
AcDbBlockRepETag
1070
     1
1071
       76
1005
ED7
  0
LINE
  5
ED8
330
8AB
100
AcDbEntity
  8
Layer_0
  6
Continuous
100
AcDbLine
 10
224.9486740857394
 20
27.12517191052416
 30
0.0
 11
227.2532784857396
 21
27.12517191052416
 31
0.0
1001
AcDbBlockRepETag
1070
     1
1071
       77
1005
ED8
  0
LINE
  5
ED9
330
8AB
100
AcDbEntity
  8
Layer_0
  6
Continuous
100
AcDbLine
 10
227.2532784857396
 20
27.12517191052416
 30
0.0
 11
225.2035267257395
 21
25.02116635496861
 31
0.0
1001
AcDbBlockRepETag
1070
     1
1071
       78
1005
ED9
  0
LINE
  5
EDA
330
8AB
100
AcDbEntity
  8
Layer_0
  6
Continuous
100
AcDbLine
 10
225.2035267257395
 20
25.02116635496861
 30
0.0
 11
227.3429407079618
 21
21.5253585771909
 31
0.0
1001
AcDbBlockRepETag
1070
     1
1071
       79
1005
EDA
  0
LINE
  5
EDB
330
8AB
100
AcDbEntity
  8
Layer_0
  6
Continuous
100
AcDbLine
 10
227.3429407079618
 20
21.5253585771909
 30
0.0
 11
225.2101454279618
 21
21.5253585771909
 31
0.0
1001
AcDbBlockRepETag
1070
     1
1071
       80
1005
EDB
  0
LINE
  5
EDC
330
8AB
100
AcDbEntity
  8
Layer_0
  6
Continuous
100
AcDbLine
 10
225.2101454279618
 20
21.5253585771909
 30
0.0
 11
224.0264573746285
 21
23.82486038163529
 31
0.0
1001
AcDbBlockRepETag
1070
     1
1071
       81
1005
EDC
  0
LINE
  5
EDD
330
8AB
100
AcDbEntity
  8
Layer_0
  6
Continuous
100
AcDbLine
 10
224.0264573746285
 20
23.82486038163529
 30
0.0
 11
223.1288162635173
 21
22.89181084385757
 31
0.0
1001
AcDbBlockRepETag
1070
     1
1071
       82
1005
EDD
  0
LINE
  5
EDE
330
8AB
100
AcDbEntity
  8
Layer_0
  6
Continuous
100
AcDbLine
 10
223.1288162635173
 20
22.89181084385757
 30
0.0
 11
223.1288162635173
 21
21.5253585771909
 31
0.0
1001
AcDbBlockRepETag
1070
     1
1071
       83
1005
EDE
  0
LINE
  5
EDF
330
8AB
100
AcDbEntity
  8
Layer_0
  6
Continuous
100
AcDbLine
 10
223.1288162635173
 20
21.5253585771909
 30
0.0
 11
221.4007807079617
 21
21.5253585771909
 31
0.0
1001
AcDbBlockRepETag
1070
     1
1071
       84
1005
EDF
  0
LINE
  5
EE0
330
8AB
100
AcDbEntity
  8
Layer_0
  6
Continuous
100
AcDbLine
 10
221.4007807079617
 20
21.5253585771909
 30
0.0
 11
221.4007807079617
 21
23.59727515254019
 31
0.0
1001
AcDbBlockRepETag
1070
     1
1071
       85
1005
EE0
  0
LINE
  5
EE1
330
8AB
100
AcDbEntity
  8
Layer_0
  6
Continuous
100
AcDbLine
 10
221.4007807079617
 20
24.18415515254014
 30
0.0
 11
221.4007807079617
 21
27.12517191052416
 31
0.0
1001
AcDbBlockRepETag
1070
     1
1071
       86
1005
EE1
  0
LINE
  5
EE2
330
8AB
100
AcDbEntity
  8
Layer_0
  6
Continuous
100
AcDbLine
 10
228.2232607079618
 20
27.12517191052416
 30
0.0
 11
230.7973489924061
 21
27.12517191052416
 31
0.0
1001
AcDbBlockRepETag
1070
     1
1071
       87
1005
EE2
  0
LINE
  5
EE3
330
8AB
100
AcDbEntity
  8
Layer_0
  6
Continuous
100
AcDbLine
 10
230.7973489924061
 20
27.12517191052416
 30
0.0
 11
230.9895172806879
 21
27.12493986367417
 31
0.0
1001
AcDbBlockRepETag
1070
     1
1071
       88
1005
EE3
  0
ARC
  5
EE4
330
8AB
100
AcDbEntity
  8
Layer_0
  6
Continuous
100
AcDbCircle
 10
230.9725525871049
 20
24.17121895774676
 30
0.0
 40
2.95376962387747
100
AcDbArc
 50
82.78328108137957
 51
89.67092535604356
1001
AcDbBlockRepETag
1070
     1
1071
       89
1005
EE4
  0
ARC
  5
EE5
330
8AB
100
AcDbEntity
  8
Layer_0
  6
Continuous
100
AcDbCircle
 10
231.0477559149867
 20
24.82780674244225
 30
0.0
 40
2.292949545823431
100
AcDbArc
 50
66.0075158831784
 51
82.58650734850204
1001
AcDbBlockRepETag
1070
     1
1071
       90
1005
EE5
  0
ARC
  5
EE6
330
8AB
100
AcDbEntity
  8
Layer_0
  6
Continuous
100
AcDbCircle
 10
231.0427487643563
 20
24.78564061973634
 30
0.0
 40
2.333542317091943
100
AcDbArc
 50
55.56216139977196
 51
66.31617304840354
1001
AcDbBlockRepETag
1070
     1
1071
       91
1005
EE6
  0
ARC
  5
EE7
330
8AB
100
AcDbEntity
  8
Layer_0
  6
Continuous
100
AcDbCircle
 10
231.2145238341507
 20
25.04981310630672
 30
0.0
 40
2.018542591324589
100
AcDbArc
 50
36.01833520053741
 51
55.34294990271305
1001
AcDbBlockRepETag
1070
     1
1071
       92
1005
EE7
  0
ARC
  5
EE8
330
8AB
100
AcDbEntity
  8
Layer_0
  6
Continuous
100
AcDbCircle
 10
230.9888715958532
 20
24.88099811430959
 30
0.0
 40
2.300330515813604
100
AcDbArc
 50
23.76514939833199
 51
36.1142038632143
1001
AcDbBlockRepETag
1070
     1
1071
       93
1005
EE8
  0
ARC
  5
EE9
330
8AB
100
AcDbEntity
  8
Layer_0
  6
Continuous
100
AcDbCircle
 10
230.6446853292266
 20
24.72553036821637
 30
0.0
 40
2.67798563211716
100
AcDbArc
 50
14.91183717987406
 51
23.84177981809644
1001
AcDbBlockRepETag
1070
     1
1071
       94
1005
EE9
  0
ARC
  5
EEA
330
8AB
100
AcDbEntity
  8
Layer_0
  6
Continuous
100
AcDbCircle
 10
229.9344039421794
 20
24.52996360300563
 30
0.0
 40
3.414678132476108
100
AcDbArc
 50
9.331404880578491
 51
15.01590572961326
1001
AcDbBlockRepETag
1070
     1
1071
       95
1005
EEA
  0
ARC
  5
EEB
330
8AB
100
AcDbEntity
  8
Layer_0
  6
Continuous
100
AcDbCircle
 10
228.8032092906371
 20
24.33997487042689
 30
0.0
 40
4.561711146503288
100
AcDbArc
 50
4.729289621456031
 51
9.382366194577112
1001
AcDbBlockRepETag
1070
     1
1071
       96
1005
EEB
  0
ARC
  5
EEC
330
8AB
100
AcDbEntity
  8
Layer_0
  6
Continuous
100
AcDbCircle
 10
227.9309038578783
 20
24.25467353447732
 30
0.0
 40
5.438095381532108
100
AcDbArc
 50
356.4021595603731
 51
4.867217560082285
1001
AcDbBlockRepETag
1070
     1
1071
       97
1005
EEC
  0
ARC
  5
EED
330
8AB
100
AcDbEntity
  8
Layer_0
  6
Continuous
100
AcDbCircle
 10
229.2427032624908
 20
24.17888499863364
 30
0.0
 40
4.124130869148689
100
AcDbArc
 50
351.7769211873317
 51
356.309354746729
1001
AcDbBlockRepETag
1070
     1
1071
       98
1005
EED
  0
ARC
  5
EEE
330
8AB
100
AcDbEntity
  8
Layer_0
  6
Continuous
100
AcDbCircle
 10
230.3214886186733
 20
24.02511104940789
 30
0.0
 40
3.034443638509187
100
AcDbArc
 50
344.8890264198744
 51
351.7372102321354
1001
AcDbBlockRepETag
1070
     1
1071
       99
1005
EEE
  0
ARC
  5
EEF
330
8AB
100
AcDbEntity
  8
Layer_0
  6
Continuous
100
AcDbCircle
 10
230.8547356907538
 20
23.88168884800814
 30
0.0
 40
2.482246210469892
100
AcDbArc
 50
333.5148007955734
 51
344.8763585205548
1001
AcDbBlockRepETag
1070
     1
1071
      100
1005
EEF
  0
ARC
  5
EF0
330
8AB
100
AcDbEntity
  8
Layer_0
  6
Continuous
100
AcDbCircle
 10
231.0795735122222
 20
23.77527728427492
 30
0.0
 40
2.233554860483748
100
AcDbArc
 50
315.3591181132754
 51
333.3858585799107
1001
AcDbBlockRepETag
1070
     1
1071
      101
1005
EF0
  0
ARC
  5
EF1
330
8AB
100
AcDbEntity
  8
Layer_0
  6
Continuous
100
AcDbCircle
 10
231.2374705545496
 20
23.62675246739593
 30
0.0
 40
2.016851487083524
100
AcDbArc
 50
294.4621373706316
 51
315.2094339427457
1001
AcDbBlockRepETag
1070
     1
1071
      102
1005
EF1
  0
ARC
  5
EF2
330
8AB
100
AcDbEntity
  8
Layer_0
  6
Continuous
100
AcDbCircle
 10
230.9552903813085
 20
24.2429346181018
 30
0.0
 40
2.694571152096584
100
AcDbArc
 50
287.3554571240317
 51
294.4981642017254
1001
AcDbBlockRepETag
1070
     1
1071
      103
1005
EF2
  0
ARC
  5
EF3
330
8AB
100
AcDbEntity
  8
Layer_0
  6
Continuous
100
AcDbCircle
 10
230.7668478969952
 20
24.80695555930902
 30
0.0
 40
3.289146331997433
100
AcDbArc
 50
276.2597223684024
 51
287.5578106691976
1001
AcDbBlockRepETag
1070
     1
1071
      104
1005
EF3
  0
ARC
  5
EF4
330
8AB
100
AcDbEntity
  8
Layer_0
  6
Continuous
100
AcDbCircle
 10
230.8630096065351
 20
24.20861966322582
 30
0.0
 40
2.684064338289446
100
AcDbArc
 50
268.5982260747654
 51
275.6118699056292
1001
AcDbBlockRepETag
1070
     1
1071
      105
1005
EF4
  0
LINE
  5
EF5
330
8AB
100
AcDbEntity
  8
Layer_0
  6
Continuous
100
AcDbLine
 10
230.7973489924061
 20
21.5253585771909
 30
0.0
 11
228.2232607079618
 21
21.5253585771909
 31
0.0
1001
AcDbBlockRepETag
1070
     1
1071
      106
1005
EF5
  0
LINE
  5
EF6
330
8AB
100
AcDbEntity
  8
Layer_0
  6
Continuous
100
AcDbLine
 10
228.2232607079618
 20
21.5253585771909
 30
0.0
 11
228.2232607079618
 21
27.12517191052416
 31
0.0
1001
AcDbBlockRepETag
1070
     1
1071
      107
1005
EF6
  0
LINE
  5
EF7
330
8AB
100
AcDbEntity
  8
Layer_0
  6
Continuous
100
AcDbLine
 10
229.9512962635174
 20
25.85359857719084
 30
0.0
 11
229.9512962635174
 21
22.79693191052422
 31
0.0
1001
AcDbBlockRepETag
1070
     1
1071
      108
1005
EF7
  0
LINE
  5
EF8
330
8AB
100
AcDbEntity
  8
Layer_0
  6
Continuous
100
AcDbLine
 10
229.9512962635174
 20
22.79693191052422
 30
0.0
 11
230.378080290184
 21
22.79693191052422
 31
0.0
1001
AcDbBlockRepETag
1070
     1
1071
      109
1005
EF8
  0
LINE
  5
EF9
330
8AB
100
AcDbEntity
  8
Layer_0
  6
Continuous
100
AcDbLine
 10
230.378080290184
 20
22.79693191052422
 30
0.0
 11
230.5430900032413
 21
22.79738840458674
 31
0.0
1001
AcDbBlockRepETag
1070
     1
1071
      110
1005
EF9
  0
ARC
  5
EFA
330
8AB
100
AcDbEntity
  8
Layer_0
  6
Continuous
100
AcDbCircle
 10
230.5200579086077
 20
24.87278067980526
 30
0.0
 40
2.075520072998644
100
AcDbArc
 50
270.6358256510954
 51
277.7703754589051
1001
AcDbBlockRepETag
1070
     1
1071
      111
1005
EFA
  0
ARC
  5
EFB
330
8AB
100
AcDbEntity
  8
Layer_0
  6
Continuous
100
AcDbCircle
 10
230.6488048599046
 20
23.90858326547232
 30
0.0
 40
1.10277257341684
100
AcDbArc
 50
277.9157427807076
 51
290.1128099141906
1001
AcDbBlockRepETag
1070
     1
1071
      112
1005
EFB
  0
ARC
  5
EFC
330
8AB
100
AcDbEntity
  8
Layer_0
  6
Continuous
100
AcDbCircle
 10
230.7530812622324
 20
23.61587364590469
 30
0.0
 40
0.7920603871756892
100
AcDbArc
 50
290.3107692825324
 51
334.6067063594051
1001
AcDbBlockRepETag
1070
     1
1071
      113
1005
EFC
  0
ARC
  5
EFD
330
8AB
100
AcDbEntity
  8
Layer_0
  6
Continuous
100
AcDbCircle
 10
230.461837594037
 20
23.76019869176275
 30
0.0
 40
1.117069991765284
100
AcDbArc
 50
334.325255110095
 51
343.2906517439329
1001
AcDbBlockRepETag
1070
     1
1071
      114
1005
EFD
  0
ARC
  5
EFE
330
8AB
100
AcDbEntity
  8
Layer_0
  6
Continuous
100
AcDbCircle
 10
229.918490392829
 20
23.92862387038645
 30
0.0
 40
1.68590743889215
100
AcDbArc
 50
343.1175964371862
 51
349.2027813687033
1001
AcDbBlockRepETag
1070
     1
1071
      115
1005
EFE
  0
ARC
  5
EFF
330
8AB
100
AcDbEntity
  8
Layer_0
  6
Continuous
100
AcDbCircle
 10
229.0068126809604
 20
24.10711970711441
 30
0.0
 40
2.614887351844403
100
AcDbArc
 50
349.103130290753
 51
353.7853967080263
1001
AcDbBlockRepETag
1070
     1
1071
      116
1005
EFF
  0
ARC
  5
F00
330
8AB
100
AcDbEntity
  8
Layer_0
  6
Continuous
100
AcDbCircle
 10
227.4230422820701
 20
24.28154853857893
 30
0.0
 40
4.208233427112191
100
AcDbArc
 50
353.758761317532
 51
5.277618527404165
1001
AcDbBlockRepETag
1070
     1
1071
      117
1005
F00
  0
ARC
  5
F01
330
8AB
100
AcDbEntity
  8
Layer_0
  6
Continuous
100
AcDbCircle
 10
228.7690714538062
 20
24.39633965515077
 30
0.0
 40
2.857367607989937
100
AcDbArc
 50
5.468221859436184
 51
9.935238513214976
1001
AcDbBlockRepETag
1070
     1
1071
      118
1005
F01
  0
ARC
  5
F02
330
8AB
100
AcDbEntity
  8
Layer_0
  6
Continuous
100
AcDbCircle
 10
229.6222080048746
 20
24.54389011593912
 30
0.0
 40
1.991568462990139
100
AcDbArc
 50
9.988696142100911
 51
14.78120408781317
1001
AcDbBlockRepETag
1070
     1
1071
      119
1005
F02
  0
ARC
  5
F03
330
8AB
100
AcDbEntity
  8
Layer_0
  6
Continuous
100
AcDbCircle
 10
230.152469695289
 20
24.68362672308524
 30
0.0
 40
1.44320385928803
100
AcDbArc
 50
14.78805590446133
 51
25.10688374556406
1001
AcDbBlockRepETag
1070
     1
1071
      120
1005
F03
  0
ARC
  5
F04
330
8AB
100
AcDbEntity
  8
Layer_0
  6
Continuous
100
AcDbCircle
 10
230.4532669783325
 20
24.82233401963288
 30
0.0
 40
1.111973762003064
100
AcDbArc
 50
25.21142166954169
 51
38.40722282261229
1001
AcDbBlockRepETag
1070
     1
1071
      121
1005
F04
  0
ARC
  5
F05
330
8AB
100
AcDbEntity
  8
Layer_0
  6
Continuous
100
AcDbCircle
 10
230.6273379382287
 20
24.95883745557558
 30
0.0
 40
0.8907676044643009
100
AcDbArc
 50
38.48278980500769
 51
59.57729909510718
1001
AcDbBlockRepETag
1070
     1
1071
      122
1005
F05
  0
ARC
  5
F06
330
8AB
100
AcDbEntity
  8
Layer_0
  6
Continuous
100
AcDbCircle
 10
230.6464476518065
 20
24.97374855358839
 30
0.0
 40
0.8682787805513154
100
AcDbArc
 50
60.1664444790731
 51
75.95565955372556
1001
AcDbBlockRepETag
1070
     1
1071
      123
1005
F06
  0
ARC
  5
F07
330
8AB
100
AcDbEntity
  8
Layer_0
  6
Continuous
100
AcDbCircle
 10
230.5632279883318
 20
24.64997635786029
 30
0.0
 40
1.202569932234446
100
AcDbArc
 50
75.85268083068844
 51
88.25666622715564
1001
AcDbBlockRepETag
1070
     1
1071
      124
1005
F07
  0
ARC
  5
F08
330
8AB
100
AcDbEntity
  8
Layer_0
  6
Continuous
100
AcDbCircle
 10
230.4554284745502
 20
20.88444397099215
 30
0.0
 40
4.96964355533854
100
AcDbArc
 50
88.3351363860739
 51
90.803730434891
1001
AcDbBlockRepETag
1070
     1
1071
      125
1005
F08
  0
LINE
  5
F09
330
8AB
100
AcDbEntity
  8
Layer_0
  6
Continuous
100
AcDbLine
 10
230.385717881295
 20
25.85359857719084
 30
0.0
 11
229.9512962635174
 21
25.85359857719084
 31
0.0
1001
AcDbBlockRepETag
1070
     1
1071
      126
1005
F09
  0
LINE
  5
F0A
330
8AB
100
AcDbEntity
  8
Layer_0
  6
Continuous
100
AcDbLine
 10
237.9603652571882
 20
22.44643413274639
 30
0.0
 11
236.0032019682994
 21
22.44643413274639
 31
0.0
1001
AcDbBlockRepETag
1070
     1
1071
      127
1005
F0A
  0
LINE
  5
F0B
330
8AB
100
AcDbEntity
  8
Layer_0
  6
Continuous
100
AcDbLine
 10
236.0032019682994
 20
22.44643413274639
 30
0.0
 11
235.7232683594105
 21
21.5253585771909
 31
0.0
1001
AcDbBlockRepETag
1070
     1
1071
      128
1005
F0B
  0
LINE
  5
F0C
330
8AB
100
AcDbEntity
  8
Layer_0
  6
Continuous
100
AcDbLine
 10
235.7232683594105
 20
21.5253585771909
 30
0.0
 11
233.9558792394105
 21
21.5253585771909
 31
0.0
1001
AcDbBlockRepETag
1070
     1
1071
      129
1005
F0C
  0
LINE
  5
F0D
330
8AB
100
AcDbEntity
  8
Layer_0
  6
Continuous
100
AcDbLine
 10
233.9558792394105
 20
21.5253585771909
 30
0.0
 11
236.0580997016327
 21
27.12517191052416
 31
0.0
1001
AcDbBlockRepETag
1070
     1
1071
      130
1005
F0D
  0
LINE
  5
F0E
330
8AB
100
AcDbEntity
  8
Layer_0
  6
Continuous
100
AcDbLine
 10
236.0580997016327
 20
27.12517191052416
 30
0.0
 11
237.9562897016326
 21
27.12517191052416
 31
0.0
1001
AcDbBlockRepETag
1070
     1
1071
      131
1005
F0E
  0
LINE
  5
F0F
330
8AB
100
AcDbEntity
  8
Layer_0
  6
Continuous
100
AcDbLine
 10
237.9562897016326
 20
27.12517191052416
 30
0.0
 11
240.0529103505216
 21
21.5253585771909
 31
0.0
1001
AcDbBlockRepETag
1070
     1
1071
      132
1005
F0F
  0
LINE
  5
F10
330
8AB
100
AcDbEntity
  8
Layer_0
  6
Continuous
100
AcDbLine
 10
240.0529103505216
 20
21.5253585771909
 30
0.0
 11
238.2405597016327
 21
21.5253585771909
 31
0.0
1001
AcDbBlockRepETag
1070
     1
1071
      133
1005
F10
  0
LINE
  5
F11
330
8AB
100
AcDbEntity
  8
Layer_0
  6
Continuous
100
AcDbLine
 10
238.2405597016327
 20
21.5253585771909
 30
0.0
 11
237.9603652571882
 21
22.44643413274639
 31
0.0
1001
AcDbBlockRepETag
1070
     1
1071
      134
1005
F11
  0
LINE
  5
F12
330
8AB
100
AcDbEntity
  8
Layer_0
  6
Continuous
100
AcDbLine
 10
237.5935652571882
 20
23.66094968830203
 30
0.0
 11
236.9840170171883
 21
25.67376061274638
 31
0.0
1001
AcDbBlockRepETag
1070
     1
1071
      135
1005
F12
  0
LINE
  5
F13
330
8AB
100
AcDbEntity
  8
Layer_0
  6
Continuous
100
AcDbLine
 10
236.9840170171883
 20
25.67376061274638
 30
0.0
 11
236.3723005816328
 21
23.66094968830203
 31
0.0
1001
AcDbBlockRepETag
1070
     1
1071
      136
1005
F13
  0
LINE
  5
F14
330
8AB
100
AcDbEntity
  8
Layer_0
  6
Continuous
100
AcDbLine
 10
236.3723005816328
 20
23.66094968830203
 30
0.0
 11
237.5935652571882
 21
23.66094968830203
 31
0.0
1001
AcDbBlockRepETag
1070
     1
1071
      137
1005
F14
  0
LINE
  5
F15
330
8AB
100
AcDbEntity
  8
Layer_0
  6
Continuous
100
AcDbLine
 10
244.2080366062234
 20
23.17548254481812
 30
0.0
 11
245.26931127289
 21
22.85355115104039
 31
0.0
1001
AcDbBlockRepETag
1070
     1
1071
      138
1005
F15
  0
LINE
  5
F16
330
8AB
100
AcDbEntity
  8
Layer_0
  6
Continuous
100
AcDbLine
 10
245.26931127289
 20
22.85355115104039
 30
0.0
 11
245.2382882287727
 21
22.72597762849466
 31
0.0
1001
AcDbBlockRepETag
1070
     1
1071
      139
1005
F16
  0
ARC
  5
F17
330
8AB
100
AcDbEntity
  8
Layer_0
  6
Continuous
100
AcDbCircle
 10
243.7574030094781
 20
23.10767762069645
 30
0.0
 40
1.529286080748813
100
AcDbArc
 50
325.0271288511947
 51
345.5465361720428
1001
AcDbBlockRepETag
1070
     1
1071
      140
1005
F17
  0
ARC
  5
F18
330
8AB
100
AcDbEntity
  8
Layer_0
  6
Continuous
100
AcDbCircle
 10
243.5350592521747
 20
23.24554583325039
 30
0.0
 40
1.790562752417543
100
AcDbArc
 50
311.9384996449352
 51
325.4902336350136
1001
AcDbBlockRepETag
1070
     1
1071
      141
1005
F18
  0
ARC
  5
F19
330
8AB
100
AcDbEntity
  8
Layer_0
  6
Continuous
100
AcDbCircle
 10
243.7955794103218
 20
22.96027718366099
 30
0.0
 40
1.404251468427889
100
AcDbArc
 50
287.8765154735584
 51
311.8105092976471
1001
AcDbBlockRepETag
1070
     1
1071
      142
1005
F19
  0
ARC
  5
F1A
330
8AB
100
AcDbEntity
  8
Layer_0
  6
Continuous
100
AcDbCircle
 10
243.6509227355191
 20
23.38870536937657
 30
0.0
 40
1.856410250773953
100
AcDbArc
 50
280.0561408280625
 51
288.0666233144055
1001
AcDbBlockRepETag
1070
     1
1071
      143
1005
F1A
  0
ARC
  5
F1B
330
8AB
100
AcDbEntity
  8
Layer_0
  6
Continuous
100
AcDbCircle
 10
243.5105260776495
 20
24.16156474628883
 30
0.0
 40
2.641913426732009
100
AcDbArc
 50
273.7667803134696
 51
280.1274577621772
1001
AcDbBlockRepETag
1070
     1
1071
      144
1005
F1B
  0
ARC
  5
F1C
330
8AB
100
AcDbEntity
  8
Layer_0
  6
Continuous
100
AcDbCircle
 10
243.4600198139626
 20
24.76389037448746
 30
0.0
 40
3.246273949803888
100
AcDbArc
 50
262.7977890050909
 51
273.9578766891088
1001
AcDbBlockRepETag
1070
     1
1071
      145
1005
F1C
  0
ARC
  5
F1D
330
8AB
100
AcDbEntity
  8
Layer_0
  6
Continuous
100
AcDbCircle
 10
243.3629065951168
 20
23.95435058179999
 30
0.0
 40
2.430951751655812
100
AcDbArc
 50
256.9575693125501
 51
262.6764954993242
1001
AcDbBlockRepETag
1070
     1
1071
      146
1005
F1D
  0
ARC
  5
F1E
330
8AB
100
AcDbEntity
  8
Layer_0
  6
Continuous
100
AcDbCircle
 10
243.2273881703163
 20
23.36802629061458
 30
0.0
 40
1.829169978604294
100
AcDbArc
 50
248.0242698651957
 51
256.9483344352153
1001
AcDbBlockRepETag
1070
     1
1071
      147
1005
F1E
  0
ARC
  5
F1F
330
8AB
100
AcDbEntity
  8
Layer_0
  6
Continuous
100
AcDbCircle
 10
243.1125649429002
 20
23.07379890996356
 30
0.0
 40
1.51335633837675
100
AcDbArc
 50
224.6806860671331
 51
247.8870838605167
1001
AcDbBlockRepETag
1070
     1
1071
      148
1005
F1F
  0
ARC
  5
F20
330
8AB
100
AcDbEntity
  8
Layer_0
  6
Continuous
100
AcDbCircle
 10
243.2299223185471
 20
23.19549429062647
 30
0.0
 40
1.682377221044235
100
AcDbArc
 50
207.8287111073605
 51
224.8172331216357
1001
AcDbBlockRepETag
1070
     1
1071
      149
1005
F20
  0
ARC
  5
F21
330
8AB
100
AcDbEntity
  8
Layer_0
  6
Continuous
100
AcDbCircle
 10
243.4799778422671
 20
23.33147126185679
 30
0.0
 40
1.966994366243519
100
AcDbArc
 50
197.5660937695385
 51
207.9311699887163
1001
AcDbBlockRepETag
1070
     1
1071
      150
1005
F21
  0
ARC
  5
F22
330
8AB
100
AcDbEntity
  8
Layer_0
  6
Continuous
100
AcDbCircle
 10
243.8739170638685
 20
23.45955152389547
 30
0.0
 40
2.381221510884298
100
AcDbArc
 50
189.9716801549017
 51
197.6434438351591
1001
AcDbBlockRepETag
1070
     1
1071
      151
1005
F22
  0
ARC
  5
F23
330
8AB
100
AcDbEntity
  8
Layer_0
  6
Continuous
100
AcDbCircle
 10
244.4060437752239
 20
23.55618459995731
 30
0.0
 40
2.922044318476163
100
AcDbArc
 50
174.2595205290312
 51
190.0310826211785
1001
AcDbBlockRepETag
1070
     1
1071
      152
1005
F23
  0
ARC
  5
F24
330
8AB
100
AcDbEntity
  8
Layer_0
  6
Continuous
100
AcDbCircle
 10
243.9783967746036
 20
23.59661840659283
 30
0.0
 40
2.492498900328154
100
AcDbArc
 50
167.900167647015
 51
174.2010550302073
1001
AcDbBlockRepETag
1070
     1
1071
      153
1005
F24
  0
ARC
  5
F25
330
8AB
100
AcDbEntity
  8
Layer_0
  6
Continuous
100
AcDbCircle
 10
243.5592897379083
 20
23.68687105930236
 30
0.0
 40
2.063784473263114
100
AcDbArc
 50
160.4452650310794
 51
167.9111663255895
1001
AcDbBlockRepETag
1070
     1
1071
      154
1005
F25
  0
ARC
  5
F26
330
8AB
100
AcDbEntity
  8
Layer_0
  6
Continuous
100
AcDbCircle
 10
243.2411908118293
 20
23.79850314089049
 30
0.0
 40
1.726669210397069
100
AcDbArc
 50
143.2323998287101
 51
160.4029031357032
1001
AcDbBlockRepETag
1070
     1
1071
      155
1005
F26
  0
ARC
  5
F27
330
8AB
100
AcDbEntity
  8
Layer_0
  6
Continuous
100
AcDbCircle
 10
243.1804730746778
 20
23.83814906409918
 30
0.0
 40
1.654305518727585
100
AcDbArc
 50
113.6945418014047
 51
143.0736115810209
1001
AcDbBlockRepETag
1070
     1
1071
      156
1005
F27
  0
ARC
  5
F28
330
8AB
100
AcDbEntity
  8
Layer_0
  6
Continuous
100
AcDbCircle
 10
243.2520773323358
 20
23.68158396607066
 30
0.0
 40
1.826449166370877
100
AcDbArc
 50
105.5043101883972
 51
113.7776958346992
1001
AcDbBlockRepETag
1070
     1
1071
      157
1005
F28
  0
ARC
  5
F29
330
8AB
100
AcDbEntity
  8
Layer_0
  6
Continuous
100
AcDbCircle
 10
243.3623342086162
 20
23.29174711638438
 30
0.0
 40
2.231573779199985
100
AcDbArc
 50
98.63392910600104
 51
105.5566113300539
1001
AcDbBlockRepETag
1070
     1
1071
      158
1005
F29
  0
ARC
  5
F2A
330
8AB
100
AcDbEntity
  8
Layer_0
  6
Continuous
100
AcDbCircle
 10
243.4333519623456
 20
22.80270667058017
 30
0.0
 40
2.72573537613422
100
AcDbArc
 50
78.34438713217278
 51
98.56661781291569
1001
AcDbBlockRepETag
1070
     1
1071
      159
1005
F2A
  0
ARC
  5
F2B
330
8AB
100
AcDbEntity
  8
Layer_0
  6
Continuous
100
AcDbCircle
 10
243.558421968778
 20
23.43951554729995
 30
0.0
 40
2.076799164148299
100
AcDbArc
 50
69.89002992839473
 51
78.17436971521366
1001
AcDbBlockRepETag
1070
     1
1071
      160
1005
F2B
  0
ARC
  5
F2C
330
8AB
100
AcDbEntity
  8
Layer_0
  6
Continuous
100
AcDbCircle
 10
243.6711597527728
 20
23.74958652292776
 30
0.0
 40
1.746870144226139
100
AcDbArc
 50
59.08892718453631
 51
69.86559777442483
1001
AcDbBlockRepETag
1070
     1
1071
      161
1005
F2C
  0
ARC
  5
F2D
330
8AB
100
AcDbEntity
  8
Layer_0
  6
Continuous
100
AcDbCircle
 10
243.8089849217008
 20
23.98074768643971
 30
0.0
 40
1.477740128553054
100
AcDbArc
 50
43.98876304565326
 51
59.0695461708295
1001
AcDbBlockRepETag
1070
     1
1071
      162
1005
F2D
  0
ARC
  5
F2E
330
8AB
100
AcDbEntity
  8
Layer_0
  6
Continuous
100
AcDbCircle
 10
243.9006514314913
 20
24.08160274062641
 30
0.0
 40
1.341772204166705
100
AcDbArc
 50
21.04507451157915
 51
43.608766741583
1001
AcDbBlockRepETag
1070
     1
1071
      163
1005
F2E
  0
ARC
  5
F2F
330
8AB
100
AcDbEntity
  8
Layer_0
  6
Continuous
100
AcDbCircle
 10
241.5573088005849
 20
23.19753824635597
 30
0.0
 40
3.846314247197142
100
AcDbArc
 50
17.31242054331958
 51
20.80071690899437
1001
AcDbBlockRepETag
1070
     1
1071
      164
1005
F2F
  0
LINE
  5
F30
330
8AB
100
AcDbEntity
  8
Layer_0
  6
Continuous
100
AcDbLine
 10
245.2293708284458
 20
24.34213151548488
 30
0.0
 11
244.1566846062235
 21
24.1055243225959
 31
0.0
1001
AcDbBlockRepETag
1070
     1
1071
      165
1005
F30
  0
LINE
  5
F31
330
8AB
100
AcDbEntity
  8
Layer_0
  6
Continuous
100
AcDbLine
 10
244.1566846062235
 20
24.1055243225959
 30
0.0
 11
244.1324339604037
 21
24.17994288765499
 31
0.0
1001
AcDbBlockRepETag
1070
     1
1071
      166
1005
F31
  0
ARC
  5
F32
330
8AB
100
AcDbEntity
  8
Layer_0
  6
Continuous
100
AcDbCircle
 10
243.4639567545039
 20
23.94737405113676
 30
0.0
 40
0.7077782410664653
100
AcDbArc
 50
19.18321521511125
 51
52.24442260679631
1001
AcDbBlockRepETag
1070
     1
1071
      167
1005
F32
  0
ARC
  5
F33
330
8AB
100
AcDbEntity
  8
Layer_0
  6
Continuous
100
AcDbCircle
 10
243.5318287811867
 20
24.0146959833827
 30
0.0
 40
0.6131200835810952
100
AcDbArc
 50
53.40709174973572
 51
74.08080268379116
1001
AcDbBlockRepETag
1070
     1
1071
      168
1005
F33
  0
ARC
  5
F34
330
8AB
100
AcDbEntity
  8
Layer_0
  6
Continuous
100
AcDbCircle
 10
243.434451415588
 20
23.69316390340964
 30
0.0
 40
0.9490457037515586
100
AcDbArc
 50
73.7516159924397
 51
95.66081154367351
1001
AcDbBlockRepETag
1070
     1
1071
      169
1005
F34
  0
ARC
  5
F35
330
8AB
100
AcDbEntity
  8
Layer_0
  6
Continuous
100
AcDbCircle
 10
243.4108560617149
 20
23.95913658436041
 30
0.0
 40
0.6820482389557877
100
AcDbArc
 50
95.89224983815196
 51
110.9533299586148
1001
AcDbBlockRepETag
1070
     1
1071
      170
1005
F35
  0
ARC
  5
F36
330
8AB
100
AcDbEntity
  8
Layer_0
  6
Continuous
100
AcDbCircle
 10
243.3691438435123
 20
24.07872353108951
 30
0.0
 40
0.5554658133254394
100
AcDbArc
 50
111.3464652684466
 51
134.1543946314857
1001
AcDbBlockRepETag
1070
     1
1071
      171
1005
F36
  0
ARC
  5
F37
330
8AB
100
AcDbEntity
  8
Layer_0
  6
Continuous
100
AcDbCircle
 10
243.4593644122772
 20
23.98346074279004
 30
0.0
 40
0.6866626205494999
100
AcDbArc
 50
134.0184372447335
 51
145.6640827458567
1001
AcDbBlockRepETag
1070
     1
1071
      172
1005
F37
  0
ARC
  5
F38
330
8AB
100
AcDbEntity
  8
Layer_0
  6
Continuous
100
AcDbCircle
 10
243.6232093525034
 20
23.87044946182198
 30
0.0
 40
0.8857005119862384
100
AcDbArc
 50
145.6056831623288
 51
155.6385511141911
1001
AcDbBlockRepETag
1070
     1
1071
      173
1005
F38
  0
ARC
  5
F39
330
8AB
100
AcDbEntity
  8
Layer_0
  6
Continuous
100
AcDbCircle
 10
243.890512995976
 20
23.74762064426466
 30
0.0
 40
1.179870798278074
100
AcDbArc
 50
155.5593087456236
 51
164.0387762881434
1001
AcDbBlockRepETag
1070
     1
1071
      174
1005
F39
  0
ARC
  5
F3A
330
8AB
100
AcDbEntity
  8
Layer_0
  6
Continuous
100
AcDbCircle
 10
244.2962003156954
 20
23.62982373172043
 30
0.0
 40
1.602311555640956
100
AcDbArc
 50
163.978095450264
 51
171.0320491165195
1001
AcDbBlockRepETag
1070
     1
1071
      175
1005
F3A
  0
ARC
  5
F3B
330
8AB
100
AcDbEntity
  8
Layer_0
  6
Continuous
100
AcDbCircle
 10
245.1790267912809
 20
23.49328877894459
 30
0.0
 40
2.495630939150778
100
AcDbArc
 50
171.0952036120182
 51
187.4195105007301
1001
AcDbBlockRepETag
1070
     1
1071
      176
1005
F3B
  0
ARC
  5
F3C
330
8AB
100
AcDbEntity
  8
Layer_0
  6
Continuous
100
AcDbCircle
 10
244.3805643392161
 20
23.39499472199975
 30
0.0
 40
1.69117017703261
100
AcDbArc
 50
187.6104890858927
 51
192.679887339859
1001
AcDbBlockRepETag
1070
     1
1071
      177
1005
F3C
  0
ARC
  5
F3D
330
8AB
100
AcDbEntity
  8
Layer_0
  6
Continuous
100
AcDbCircle
 10
243.8492561965293
 20
23.27449276506706
 30
0.0
 40
1.14636951312061
100
AcDbArc
 50
192.632956633706
 51
201.4686768516428
1001
AcDbBlockRepETag
1070
     1
1071
      178
1005
F3D
  0
ARC
  5
F3E
330
8AB
100
AcDbEntity
  8
Layer_0
  6
Continuous
100
AcDbCircle
 10
243.5330473366212
 20
23.15183853069255
 30
0.0
 40
0.8072109475011625
100
AcDbArc
 50
201.5812414955746
 51
212.5393884931737
1001
AcDbBlockRepETag
1070
     1
1071
      179
1005
F3E
  0
ARC
  5
F3F
330
8AB
100
AcDbEntity
  8
Layer_0
  6
Continuous
100
AcDbCircle
 10
243.3563998537186
 20
23.0378333070878
 30
0.0
 40
0.5969732100250226
100
AcDbArc
 50
212.4344012743361
 51
251.175792080511
1001
AcDbBlockRepETag
1070
     1
1071
      180
1005
F3F
  0
ARC
  5
F40
330
8AB
100
AcDbEntity
  8
Layer_0
  6
Continuous
100
AcDbCircle
 10
243.4245254428367
 20
23.232113650766
 30
0.0
 40
0.8028458751552188
100
AcDbArc
 50
251.0477497403591
 51
268.1117935039209
1001
AcDbBlockRepETag
1070
     1
1071
      181
1005
F40
  0
ARC
  5
F41
330
8AB
100
AcDbEntity
  8
Layer_0
  6
Continuous
100
AcDbCircle
 10
243.4341211631517
 20
23.28816020264742
 30
0.0
 40
0.8592130655064822
100
AcDbArc
 50
267.5953983699861
 51
285.4898940521645
1001
AcDbBlockRepETag
1070
     1
1071
      182
1005
F41
  0
ARC
  5
F42
330
8AB
100
AcDbEntity
  8
Layer_0
  6
Continuous
100
AcDbCircle
 10
243.4805950628509
 20
23.10312083249971
 30
0.0
 40
0.6684991137105021
100
AcDbArc
 50
285.8869240374019
 51
318.2944822518432
1001
AcDbBlockRepETag
1070
     1
1071
      183
1005
F42
  0
ARC
  5
F43
330
8AB
100
AcDbEntity
  8
Layer_0
  6
Continuous
100
AcDbCircle
 10
243.3539805117439
 20
23.21925054103065
 30
0.0
 40
0.8402912253227562
100
AcDbArc
 50
318.1265757342572
 51
340.9755019108668
1001
AcDbBlockRepETag
1070
     1
1071
      184
1005
F43
  0
ARC
  5
F44
330
8AB
100
AcDbEntity
  8
Layer_0
  6
Continuous
100
AcDbCircle
 10
242.7033190271159
 20
23.44275838325677
 30
0.0
 40
1.52827071119236
100
AcDbArc
 50
341.0054195226587
 51
349.9278736093299
1001
AcDbBlockRepETag
1070
     1
1071
      185
1005
F44
  0
LINE
  5
F45
330
8AB
100
AcDbEntity
  8
Layer_0
  6
Continuous
100
AcDbLine
 10
245.5749342326344
 20
22.96724740966386
 30
0.0
 11
245.5750804726699
 21
23.11115891240536
 31
0.0
1001
AcDbBlockRepETag
1070
     1
1071
      186
1005
F45
  0
ARC
  5
F46
330
8AB
100
AcDbEntity
  8
Layer_0
  6
Continuous
100
AcDbCircle
 10
246.7940652682019
 20
23.10268408713171
 30
0.0
 40
1.219014255208455
100
AcDbArc
 50
172.9400003992189
 51
179.6016653375392
1001
AcDbBlockRepETag
1070
     1
1071
      187
1005
F46
  0
ARC
  5
F47
330
8AB
100
AcDbEntity
  8
Layer_0
  6
Continuous
100
AcDbCircle
 10
246.6023460413956
 20
23.12219364063356
 30
0.0
 40
1.0263593559843
100
AcDbArc
 50
151.5055100004691
 51
172.7054081293678
1001
AcDbBlockRepETag
1070
     1
1071
      188
1005
F47
  0
ARC
  5
F48
330
8AB
100
AcDbEntity
  8
Layer_0
  6
Continuous
100
AcDbCircle
 10
246.7373605721916
 20
23.05184620525801
 30
0.0
 40
1.178582418056822
100
AcDbArc
 50
145.2137102365815
 51
151.6312358853239
1001
AcDbBlockRepETag
1070
     1
1071
      189
1005
F48
  0
ARC
  5
F49
330
8AB
100
AcDbEntity
  8
Layer_0
  6
Continuous
100
AcDbCircle
 10
246.9349830293056
 20
22.91483620254451
 30
0.0
 40
1.419053487497617
100
AcDbArc
 50
137.3311386846864
 51
145.2226987603811
1001
AcDbBlockRepETag
1070
     1
1071
      190
1005
F49
  0
ARC
  5
F4A
330
8AB
100
AcDbEntity
  8
Layer_0
  6
Continuous
100
AcDbCircle
 10
247.099065576612
 20
22.76102964154347
 30
0.0
 40
1.643945641061578
100
AcDbArc
 50
108.6718393714939
 51
137.2655201889719
1001
AcDbBlockRepETag
1070
     1
1071
      191
1005
F4A
  0
ARC
  5
F4B
330
8AB
100
AcDbEntity
  8
Layer_0
  6
Continuous
100
AcDbCircle
 10
247.1421998024143
 20
22.63860652405731
 30
0.0
 40
1.773735450592888
100
AcDbArc
 50
104.4371398018017
 51
108.7258014194255
1001
AcDbBlockRepETag
1070
     1
1071
      192
1005
F4B
  0
ARC
  5
F4C
330
8AB
100
AcDbEntity
  8
Layer_0
  6
Continuous
100
AcDbCircle
 10
247.2028552744628
 20
22.40032450669264
 30
0.0
 40
2.01961553188581
100
AcDbArc
 50
98.59619757283772
 51
104.4181933713802
1001
AcDbBlockRepETag
1070
     1
1071
      193
1005
F4C
  0
ARC
  5
F4D
330
8AB
100
AcDbEntity
  8
Layer_0
  6
Continuous
100
AcDbCircle
 10
247.2387996969267
 20
22.16727873740888
 30
0.0
 40
2.255416049394943
100
AcDbArc
 50
82.60827607383445
 51
98.61416675715688
1001
AcDbBlockRepETag
1070
     1
1071
      194
1005
F4D
  0
ARC
  5
F4E
330
8AB
100
AcDbEntity
  8
Layer_0
  6
Continuous
100
AcDbCircle
 10
247.2760738490499
 20
22.47478449815242
 30
0.0
 40
1.945672062302688
100
AcDbArc
 50
76.52867604604153
 51
82.53180170968986
1001
AcDbBlockRepETag
1070
     1
1071
      195
1005
F4E
  0
ARC
  5
F4F
330
8AB
100
AcDbEntity
  8
Layer_0
  6
Continuous
100
AcDbCircle
 10
247.3379111001434
 20
22.73804487666689
 30
0.0
 40
1.675249763229235
100
AcDbArc
 50
71.98715224693909
 51
76.48787768550815
1001
AcDbBlockRepETag
1070
     1
1071
      196
1005
F4F
  0
ARC
  5
F50
330
8AB
100
AcDbEntity
  8
Layer_0
  6
Continuous
100
AcDbCircle
 10
247.4186926726886
 20
22.98152681630359
 30
0.0
 40
1.41872227488509
100
AcDbArc
 50
61.92296652968074
 51
72.04895258545526
1001
AcDbBlockRepETag
1070
     1
1071
      197
1005
F50
  0
ARC
  5
F51
330
8AB
100
AcDbEntity
  8
Layer_0
  6
Continuous
100
AcDbCircle
 10
247.4732242396169
 20
23.08569651644223
 30
0.0
 40
1.301146313134754
100
AcDbArc
 50
33.83096086917628
 51
61.8827064865334
1001
AcDbBlockRepETag
1070
     1
1071
      198
1005
F51
  0
ARC
  5
F52
330
8AB
100
AcDbEntity
  8
Layer_0
  6
Continuous
100
AcDbCircle
 10
247.3876326276841
 20
23.0273498972258
 30
0.0
 40
1.404730273662166
100
AcDbArc
 50
22.34236851969374
 51
33.86419972740684
1001
AcDbBlockRepETag
1070
     1
1071
      199
1005
F52
  0
ARC
  5
F53
330
8AB
100
AcDbEntity
  8
Layer_0
  6
Continuous
100
AcDbCircle
 10
247.247307931176
 20
22.96987701515468
 30
0.0
 40
1.556368401526523
100
AcDbArc
 50
5.532096219894168
 51
22.33556779178066
1001
AcDbBlockRepETag
1070
     1
1071
      200
1005
F53
  0
ARC
  5
F54
330
8AB
100
AcDbEntity
  8
Layer_0
  6
Continuous
100
AcDbCircle
 10
247.2306451541292
 20
22.96362090504226
 30
0.0
 40
1.573563463167109
100
AcDbArc
 50
351.1319269182274
 51
5.700340232080407
1001
AcDbBlockRepETag
1070
     1
1071
      201
1005
F54
  0
ARC
  5
F55
330
8AB
100
AcDbEntity
  8
Layer_0
  6
Continuous
100
AcDbCircle
 10
247.3678467105494
 20
22.94315826791081
 30
0.0
 40
1.434847811309403
100
AcDbArc
 50
339.7936604357473
 51
351.0946729205635
1001
AcDbBlockRepETag
1070
     1
1071
      202
1005
F55
  0
ARC
  5
F56
330
8AB
100
AcDbEntity
  8
Layer_0
  6
Continuous
100
AcDbCircle
 10
247.461738130467
 20
22.91236578226312
 30
0.0
 40
1.33610384018856
100
AcDbArc
 50
313.0415119186029
 51
339.6421585154404
1001
AcDbBlockRepETag
1070
     1
1071
      203
1005
F56
  0
ARC
  5
F57
330
8AB
100
AcDbEntity
  8
Layer_0
  6
Continuous
100
AcDbCircle
 10
247.4042004751928
 20
22.97168392759852
 30
0.0
 40
1.41872899179073
100
AcDbArc
 50
296.5999395913854
 51
313.1047406259849
1001
AcDbBlockRepETag
1070
     1
1071
      204
1005
F57
  0
ARC
  5
F58
330
8AB
100
AcDbEntity
  8
Layer_0
  6
Continuous
100
AcDbCircle
 10
247.3555706272855
 20
23.06386736274204
 30
0.0
 40
1.522931253674253
100
AcDbArc
 50
287.4894181851971
 51
296.6829610613853
1001
AcDbBlockRepETag
1070
     1
1071
      205
1005
F58
  0
ARC
  5
F59
330
8AB
100
AcDbEntity
  8
Layer_0
  6
Continuous
100
AcDbCircle
 10
247.2883561852218
 20
23.27512844421165
 30
0.0
 40
1.74462629958709
100
AcDbArc
 50
281.2796566651382
 51
287.5096833841389
1001
AcDbBlockRepETag
1070
     1
1071
      206
1005
F59
  0
ARC
  5
F5A
330
8AB
100
AcDbEntity
  8
Layer_0
  6
Continuous
100
AcDbCircle
 10
247.2415298893029
 20
23.50847209773633
 30
0.0
 40
1.982621874147124
100
AcDbArc
 50
273.7909316464815
 51
281.2877560498555
1001
AcDbBlockRepETag
1070
     1
1071
      207
1005
F5A
  0
ARC
  5
F5B
330
8AB
100
AcDbEntity
  8
Layer_0
  6
Continuous
100
AcDbCircle
 10
247.2290406471529
 20
23.66174103781168
 30
0.0
 40
2.136382460620867
100
AcDbArc
 50
259.7783585614767
 51
273.8533768904413
1001
AcDbBlockRepETag
1070
     1
1071
      208
1005
F5B
  0
ARC
  5
F5C
330
8AB
100
AcDbEntity
  8
Layer_0
  6
Continuous
100
AcDbCircle
 10
247.1904747231718
 20
23.44584630254906
 30
0.0
 40
1.917070526811943
100
AcDbArc
 50
252.1152360717929
 51
259.7676563476973
1001
AcDbBlockRepETag
1070
     1
1071
      209
1005
F5C
  0
ARC
  5
F5D
330
8AB
100
AcDbEntity
  8
Layer_0
  6
Continuous
100
AcDbCircle
 10
247.1568301426432
 20
23.32825708537882
 30
0.0
 40
1.794835976147765
100
AcDbArc
 50
231.2147684927027
 51
251.9845665353193
1001
AcDbBlockRepETag
1070
     1
1071
      210
1005
F5D
  0
ARC
  5
F5E
330
8AB
100
AcDbEntity
  8
Layer_0
  6
Continuous
100
AcDbCircle
 10
247.0306403935679
 20
23.16865141206199
 30
0.0
 40
1.591378632432876
100
AcDbArc
 50
223.5828829833021
 51
231.156708007809
1001
AcDbBlockRepETag
1070
     1
1071
      211
1005
F5E
  0
ARC
  5
F5F
330
8AB
100
AcDbEntity
  8
Layer_0
  6
Continuous
100
AcDbCircle
 10
246.8482595559014
 20
22.99377319668679
 30
0.0
 40
1.338704730189856
100
AcDbArc
 50
217.3165979285772
 51
223.5424812420979
1001
AcDbBlockRepETag
1070
     1
1071
      212
1005
F5F
  0
ARC
  5
F60
330
8AB
100
AcDbEntity
  8
Layer_0
  6
Continuous
100
AcDbCircle
 10
246.6402839371196
 20
22.83531927392926
 30
0.0
 40
1.07724440992668
100
AcDbArc
 50
210.2254228446609
 51
217.3198243307828
1001
AcDbBlockRepETag
1070
     1
1071
      213
1005
F60
  0
ARC
  5
F61
330
8AB
100
AcDbEntity
  8
Layer_0
  6
Continuous
100
AcDbCircle
 10
246.5573393437683
 20
22.78455973233292
 30
0.0
 40
0.9800257418716103
100
AcDbArc
 50
187.1705015941988
 51
210.1023996698685
1001
AcDbBlockRepETag
1070
     1
1071
      214
1005
F61
  0
ARC
  5
F62
330
8AB
100
AcDbEntity
  8
Layer_0
  6
Continuous
100
AcDbCircle
 10
246.8110952426682
 20
22.81835591538402
 30
0.0
 40
1.236016957898214
100
AcDbArc
 50
180.2616307503654
 51
187.2566034788539
1001
AcDbBlockRepETag
1070
     1
1071
      215
1005
F62
  0
ARC
  5
F63
330
8AB
100
AcDbEntity
  8
Layer_0
  6
Continuous
100
AcDbCircle
 10
265.4064222724139
 20
22.91011941399552
 30
0.0
 40
19.83157032309353
100
AcDbArc
 50
179.8349501568626
 51
180.2814231275571
1001
AcDbBlockRepETag
1070
     1
1071
      216
1005
F63
  0
LINE
  5
F64
330
8AB
100
AcDbEntity
  8
Layer_0
  6
Continuous
100
AcDbLine
 10
246.66473778819
 20
22.97090481321936
 30
0.0
 11
246.6649108989916
 21
22.875138948418
 31
0.0
1001
AcDbBlockRepETag
1070
     1
1071
      217
1005
F64
  0
ARC
  5
F65
330
8AB
100
AcDbEntity
  8
Layer_0
  6
Continuous
100
AcDbCircle
 10
247.6186646285037
 20
22.88379668841685
 30
0.0
 40
0.9537930242038683
100
AcDbArc
 50
180.5200905875346
 51
188.6884056930345
1001
AcDbBlockRepETag
1070
     1
1071
      218
1005
F65
  0
ARC
  5
F66
330
8AB
100
AcDbEntity
  8
Layer_0
  6
Continuous
100
AcDbCircle
 10
247.3369839349345
 20
22.8430628477712
 30
0.0
 40
0.6691953777688299
100
AcDbArc
 50
188.8840032204496
 51
200.1417989678499
1001
AcDbBlockRepETag
1070
     1
1071
      219
1005
F66
  0
ARC
  5
F67
330
8AB
100
AcDbEntity
  8
Layer_0
  6
Continuous
100
AcDbCircle
 10
247.2816900188129
 20
22.82952343689567
 30
0.0
 40
0.6126535205328062
100
AcDbArc
 50
200.7336815388745
 51
232.3710740670548
1001
AcDbBlockRepETag
1070
     1
1071
      220
1005
F67
  0
ARC
  5
F68
330
8AB
100
AcDbEntity
  8
Layer_0
  6
Continuous
100
AcDbCircle
 10
247.2072588942617
 20
22.73423354981401
 30
0.0
 40
0.4917427371648037
100
AcDbArc
 50
232.4607100291265
 51
297.2141631514883
1001
AcDbBlockRepETag
1070
     1
1071
      221
1005
F68
  0
ARC
  5
F69
330
8AB
100
AcDbEntity
  8
Layer_0
  6
Continuous
100
AcDbCircle
 10
247.2199389880693
 20
22.70155061000412
 30
0.0
 40
0.4568935971205895
100
AcDbArc
 50
297.6744016429185
 51
319.5486294378958
1001
AcDbBlockRepETag
1070
     1
1071
      222
1005
F69
  0
ARC
  5
F6A
330
8AB
100
AcDbEntity
  8
Layer_0
  6
Continuous
100
AcDbCircle
 10
247.1591515932953
 20
22.75437873766339
 30
0.0
 40
0.5374257410036061
100
AcDbArc
 50
319.4675066209907
 51
332.1602433870556
1001
AcDbBlockRepETag
1070
     1
1071
      223
1005
F6A
  0
ARC
  5
F6B
330
8AB
100
AcDbEntity
  8
Layer_0
  6
Continuous
100
AcDbCircle
 10
247.0446924896375
 20
22.81639566122487
 30
0.0
 40
0.6676003842572471
100
AcDbArc
 50
332.041251709901
 51
341.0522955025569
1001
AcDbBlockRepETag
1070
     1
1071
      224
1005
F6B
  0
ARC
  5
F6C
330
8AB
100
AcDbEntity
  8
Layer_0
  6
Continuous
100
AcDbCircle
 10
246.8970555700341
 20
22.86860228975718
 30
0.0
 40
0.8241906582306215
100
AcDbArc
 50
340.952233066022
 51
346.9348208232776
1001
AcDbBlockRepETag
1070
     1
1071
      225
1005
F6C
  0
ARC
  5
F6D
330
8AB
100
AcDbEntity
  8
Layer_0
  6
Continuous
100
AcDbCircle
 10
246.6258393510746
 20
22.93105642976286
 30
0.0
 40
1.102504490799063
100
AcDbArc
 50
346.9594299739749
 51
353.4158802018374
1001
AcDbBlockRepETag
1070
     1
1071
      226
1005
F6D
  0
ARC
  5
F6E
330
8AB
100
AcDbEntity
  8
Layer_0
  6
Continuous
100
AcDbCircle
 10
246.3294235413134
 20
22.96720130796723
 30
0.0
 40
1.401111066471409
100
AcDbArc
 50
353.3374099461259
 51
8.060359901865181
1001
AcDbBlockRepETag
1070
     1
1071
      227
1005
F6E
  0
ARC
  5
F6F
330
8AB
100
AcDbEntity
  8
Layer_0
  6
Continuous
100
AcDbCircle
 10
246.6924152801019
 20
23.01671789368731
 30
0.0
 40
1.03476401778512
100
AcDbArc
 50
8.163899815758361
 51
14.92231978239237
1001
AcDbBlockRepETag
1070
     1
1071
      228
1005
F6F
  0
ARC
  5
F70
330
8AB
100
AcDbEntity
  8
Layer_0
  6
Continuous
100
AcDbCircle
 10
246.9571889651461
 20
23.08567138685055
 30
0.0
 40
0.7611650277289744
100
AcDbArc
 50
15.03926320058391
 51
23.37770641101925
1001
AcDbBlockRepETag
1070
     1
1071
      229
1005
F70
  0
ARC
  5
F71
330
8AB
100
AcDbEntity
  8
Layer_0
  6
Continuous
100
AcDbCircle
 10
247.1024265040776
 20
23.14836475772779
 30
0.0
 40
0.6029740262207829
100
AcDbArc
 50
23.38550767112353
 51
35.2258917977839
1001
AcDbBlockRepETag
1070
     1
1071
      230
1005
F71
  0
ARC
  5
F72
330
8AB
100
AcDbEntity
  8
Layer_0
  6
Continuous
100
AcDbCircle
 10
247.1967672052892
 20
23.21436034039527
 30
0.0
 40
0.4878424949324507
100
AcDbArc
 50
35.28521478678376
 51
53.75603884728609
1001
AcDbBlockRepETag
1070
     1
1071
      231
1005
F72
  0
ARC
  5
F73
330
8AB
100
AcDbEntity
  8
Layer_0
  6
Continuous
100
AcDbCircle
 10
247.213487747744
 20
23.23139797758722
 30
0.0
 40
0.4642284659435544
100
AcDbArc
 50
54.17717685884639
 51
83.01952571193004
1001
AcDbBlockRepETag
1070
     1
1071
      232
1005
F73
  0
ARC
  5
F74
330
8AB
100
AcDbEntity
  8
Layer_0
  6
Continuous
100
AcDbCircle
 10
247.2072695038337
 20
23.21033809949426
 30
0.0
 40
0.4859013809349186
100
AcDbArc
 50
82.59352232688923
 51
127.8552643208367
1001
AcDbBlockRepETag
1070
     1
1071
      233
1005
F74
  0
ARC
  5
F75
330
8AB
100
AcDbEntity
  8
Layer_0
  6
Continuous
100
AcDbCircle
 10
247.2876617099707
 20
23.10415723522931
 30
0.0
 40
0.6190744033243656
100
AcDbArc
 50
127.6993026702627
 51
171.1767988945917
1001
AcDbBlockRepETag
1070
     1
1071
      234
1005
F75
  0
ARC
  5
F76
330
8AB
100
AcDbEntity
  8
Layer_0
  6
Continuous
100
AcDbCircle
 10
247.5715531367352
 20
23.05747073738803
 30
0.0
 40
0.9067711096176084
100
AcDbArc
 50
171.0132049168526
 51
180.2330212340836
1001
AcDbBlockRepETag
1070
     1
1071
      235
1005
F76
  0
ARC
  5
F77
330
8AB
100
AcDbEntity
  8
Layer_0
  6
Continuous
100
AcDbCircle
 10
263.9633979515484
 20
23.00154489543638
 30
0.0
 40
17.29868729880962
100
AcDbArc
 50
179.8269797664061
 51
180.1014844816173
1001
AcDbBlockRepETag
1070
     1
1071
      236
1005
F77
  0
LINE
  5
F78
330
8AB
100
AcDbEntity
  8
Layer_0
  6
Continuous
100
AcDbLine
 10
249.1097160411414
 20
24.36683591052418
 30
0.0
 11
250.130245748697
 21
24.36683591052418
 31
0.0
1001
AcDbBlockRepETag
1070
     1
1071
      237
1005
F78
  0
LINE
  5
F79
330
8AB
100
AcDbEntity
  8
Layer_0
  6
Continuous
100
AcDbLine
 10
250.130245748697
 20
24.36683591052418
 30
0.0
 11
250.130245748697
 21
23.90101050696864
 31
0.0
1001
AcDbBlockRepETag
1070
     1
1071
      238
1005
F79
  0
LINE
  5
F7A
330
8AB
100
AcDbEntity
  8
Layer_0
  6
Continuous
100
AcDbLine
 10
250.130245748697
 20
23.90101050696864
 30
0.0
 11
250.1805867086487
 21
24.00287825831128
 31
0.0
1001
AcDbBlockRepETag
1070
     1
1071
      239
1005
F7A
  0
ARC
  5
F7B
330
8AB
100
AcDbEntity
  8
Layer_0
  6
Continuous
100
AcDbCircle
 10
251.0789056864425
 20
23.54265125565041
 30
0.0
 40
1.009349235816269
100
AcDbArc
 50
140.5785784128452
 51
152.8730175524932
1001
AcDbBlockRepETag
1070
     1
1071
      240
1005
F7B
  0
ARC
  5
F7C
330
8AB
100
AcDbEntity
  8
Layer_0
  6
Continuous
100
AcDbCircle
 10
250.8041223954481
 20
23.75973852103607
 30
0.0
 40
0.659260570366233
100
AcDbArc
 50
96.56658392895186
 51
139.9881397754924
1001
AcDbBlockRepETag
1070
     1
1071
      241
1005
F7C
  0
ARC
  5
F7D
330
8AB
100
AcDbEntity
  8
Layer_0
  6
Continuous
100
AcDbCircle
 10
250.8462281356883
 20
23.46282757451559
 30
0.0
 40
0.9590711253297271
100
AcDbArc
 50
58.56727345232149
 51
97.03707488780224
1001
AcDbBlockRepETag
1070
     1
1071
      242
1005
F7D
  0
LINE
  5
F7E
330
8AB
100
AcDbEntity
  8
Layer_0
  6
Continuous
100
AcDbLine
 10
251.3463809300301
 20
24.28115795141309
 30
0.0
 11
251.0096487486969
 21
23.5049040020798
 31
0.0
1001
AcDbBlockRepETag
1070
     1
1071
      243
1005
F7E
  0
LINE
  5
F7F
330
8AB
100
AcDbEntity
  8
Layer_0
  6
Continuous
100
AcDbLine
 10
251.0096487486969
 20
23.5049040020798
 30
0.0
 11
250.936494760605
 21
23.53463597825464
 31
0.0
1001
AcDbBlockRepETag
1070
     1
1071
      244
1005
F7F
  0
ARC
  5
F80
330
8AB
100
AcDbEntity
  8
Layer_0
  6
Continuous
100
AcDbCircle
 10
250.6914111180151
 20
22.88421851982901
 30
0.0
 40
0.6950603298203541
100
AcDbArc
 50
69.35310149525824
 51
87.10987563782875
1001
AcDbBlockRepETag
1070
     1
1071
      245
1005
F80
  0
ARC
  5
F81
330
8AB
100
AcDbEntity
  8
Layer_0
  6
Continuous
100
AcDbCircle
 10
250.7083261608004
 20
23.20464658480307
 30
0.0
 40
0.3741876856823305
100
AcDbArc
 50
87.2227697626568
 51
134.6883834821398
1001
AcDbBlockRepETag
1070
     1
1071
      246
1005
F81
  0
ARC
  5
F82
330
8AB
100
AcDbEntity
  8
Layer_0
  6
Continuous
100
AcDbCircle
 10
250.8649826598194
 20
23.04106984279065
 30
0.0
 40
0.6006612079081341
100
AcDbArc
 50
134.3390955960169
 51
149.2652415429868
1001
AcDbBlockRepETag
1070
     1
1071
      247
1005
F82
  0
ARC
  5
F83
330
8AB
100
AcDbEntity
  8
Layer_0
  6
Continuous
100
AcDbCircle
 10
251.0799440699527
 20
22.90907109995726
 30
0.0
 40
0.8528971130687985
100
AcDbArc
 50
149.023442291846
 51
166.8517107270753
1001
AcDbBlockRepETag
1070
     1
1071
      248
1005
F83
  0
ARC
  5
F84
330
8AB
100
AcDbEntity
  8
Layer_0
  6
Continuous
100
AcDbCircle
 10
251.5981939423552
 20
22.78408400591752
 30
0.0
 40
1.385997206434459
100
AcDbArc
 50
166.6936664507377
 51
174.61403582113
1001
AcDbBlockRepETag
1070
     1
1071
      249
1005
F84
  0
ARC
  5
F85
330
8AB
100
AcDbEntity
  8
Layer_0
  6
Continuous
100
AcDbCircle
 10
253.2021807833612
 20
22.62920099008943
 30
0.0
 40
2.997442645096247
100
AcDbArc
 50
174.544421279949
 51
181.0330892692329
1001
AcDbBlockRepETag
1070
     1
1071
      250
1005
F85
  0
LINE
  5
F86
330
8AB
100
AcDbEntity
  8
Layer_0
  6
Continuous
100
AcDbLine
 10
250.2052253744746
 20
22.57515760207582
 30
0.0
 11
250.2052253744746
 21
22.47768712296863
 31
0.0
1001
AcDbBlockRepETag
1070
     1
1071
      251
1005
F86
  0
LINE
  5
F87
330
8AB
100
AcDbEntity
  8
Layer_0
  6
Continuous
100
AcDbLine
 10
250.2052253744746
 20
22.47768712296863
 30
0.0
 11
250.2052253744746
 21
21.5253585771909
 31
0.0
1001
AcDbBlockRepETag
1070
     1
1071
      252
1005
F87
  0
LINE
  5
F88
330
8AB
100
AcDbEntity
  8
Layer_0
  6
Continuous
100
AcDbLine
 10
250.2052253744746
 20
21.5253585771909
 30
0.0
 11
249.1097160411414
 21
21.5253585771909
 31
0.0
1001
AcDbBlockRepETag
1070
     1
1071
      253
1005
F88
  0
LINE
  5
F89
330
8AB
100
AcDbEntity
  8
Layer_0
  6
Continuous
100
AcDbLine
 10
249.1097160411414
 20
21.5253585771909
 30
0.0
 11
249.1097160411414
 21
24.36683591052418
 31
0.0
1001
AcDbBlockRepETag
1070
     1
1071
      254
1005
F89
  0
LINE
  5
F8A
330
8AB
100
AcDbEntity
  8
Layer_0
  6
Continuous
100
AcDbLine
 10
251.6518883538754
 20
20.49662808608559
 30
0.0
 11
251.6518883538754
 21
24.41649741941899
 31
0.0
1001
AcDbBlockRepETag
1070
     1
1071
      255
1005
F8A
  0
LINE
  5
F8B
330
8AB
100
AcDbEntity
  8
Layer_0
  6
Continuous
100
AcDbLine
 10
251.6518883538754
 20
24.41649741941899
 30
0.0
 11
252.6726862329865
 21
24.41649741941899
 31
0.0
1001
AcDbBlockRepETag
1070
     1
1071
      256
1005
F8B
  0
LINE
  5
F8C
330
8AB
100
AcDbEntity
  8
Layer_0
  6
Continuous
100
AcDbLine
 10
252.6726862329865
 20
24.41649741941899
 30
0.0
 11
252.6726862329865
 21
23.99631823808568
 31
0.0
1001
AcDbBlockRepETag
1070
     1
1071
      257
1005
F8C
  0
LINE
  5
F8D
330
8AB
100
AcDbEntity
  8
Layer_0
  6
Continuous
100
AcDbLine
 10
252.6726862329865
 20
23.99631823808568
 30
0.0
 11
252.7330410678262
 21
24.07163149970938
 31
0.0
1001
AcDbBlockRepETag
1070
     1
1071
      258
1005
F8D
  0
ARC
  5
F8E
330
8AB
100
AcDbEntity
  8
Layer_0
  6
Continuous
100
AcDbCircle
 10
253.6700732010238
 20
23.30725400195433
 30
0.0
 40
1.209256870031727
100
AcDbArc
 50
130.3675484473371
 51
140.7943918230472
1001
AcDbBlockRepETag
1070
     1
1071
      259
1005
F8E
  0
ARC
  5
F8F
330
8AB
100
AcDbEntity
  8
Layer_0
  6
Continuous
100
AcDbCircle
 10
253.4779072575723
 20
23.52737142732565
 30
0.0
 40
0.9170926360915016
100
AcDbArc
 50
107.7277698527467
 51
130.127346712146
1001
AcDbBlockRepETag
1070
     1
1071
      260
1005
F8F
  0
ARC
  5
F90
330
8AB
100
AcDbEntity
  8
Layer_0
  6
Continuous
100
AcDbCircle
 10
253.5629447833901
 20
23.27719234428741
 30
0.0
 40
1.181295037388264
100
AcDbArc
 50
100.9300900721266
 51
107.9616115932512
1001
AcDbBlockRepETag
1070
     1
1071
      261
1005
F90
  0
ARC
  5
F91
330
8AB
100
AcDbEntity
  8
Layer_0
  6
Continuous
100
AcDbCircle
 10
253.605616811531
 20
23.08211248727116
 30
0.0
 40
1.380935818126507
100
AcDbArc
 50
89.63564703558407
 51
101.1337517192315
1001
AcDbBlockRepETag
1070
     1
1071
      262
1005
F91
  0
ARC
  5
F92
330
8AB
100
AcDbEntity
  8
Layer_0
  6
Continuous
100
AcDbCircle
 10
253.6055797622814
 20
23.30661601141571
 30
0.0
 40
1.156437996462323
100
AcDbArc
 50
80.02069998071828
 51
89.56307875392219
1001
AcDbBlockRepETag
1070
     1
1071
      263
1005
F92
  0
ARC
  5
F93
330
8AB
100
AcDbEntity
  8
Layer_0
  6
Continuous
100
AcDbCircle
 10
253.6344447536203
 20
23.47912269564222
 30
0.0
 40
0.9815402767702799
100
AcDbArc
 50
70.54344295320224
 51
79.93513536566299
1001
AcDbBlockRepETag
1070
     1
1071
      264
1005
F93
  0
ARC
  5
F94
330
8AB
100
AcDbEntity
  8
Layer_0
  6
Continuous
100
AcDbCircle
 10
253.6710846068581
 20
23.58439644793862
 30
0.0
 40
0.8700739649413511
100
AcDbArc
 50
53.7619741953116
 51
70.50930952236234
1001
AcDbBlockRepETag
1070
     1
1071
      265
1005
F94
  0
ARC
  5
F95
330
8AB
100
AcDbEntity
  8
Layer_0
  6
Continuous
100
AcDbCircle
 10
253.5898039495791
 20
23.47361530175056
 30
0.0
 40
1.007474850063599
100
AcDbArc
 50
46.04658227582482
 51
53.75793056554799
1001
AcDbBlockRepETag
1070
     1
1071
      266
1005
F95
  0
ARC
  5
F96
330
8AB
100
AcDbEntity
  8
Layer_0
  6
Continuous
100
AcDbCircle
 10
253.4795475511278
 20
23.35836672616279
 30
0.0
 40
1.166968984816889
100
AcDbArc
 50
39.09300125509453
 51
46.07687087050967
1001
AcDbBlockRepETag
1070
     1
1071
      267
1005
F96
  0
ARC
  5
F97
330
8AB
100
AcDbEntity
  8
Layer_0
  6
Continuous
100
AcDbCircle
 10
253.3324364298207
 20
23.23917956959633
 30
0.0
 40
1.356302556724247
100
AcDbArc
 50
30.61564702119531
 51
39.08195301701935
1001
AcDbBlockRepETag
1070
     1
1071
      268
1005
F97
  0
ARC
  5
F98
330
8AB
100
AcDbEntity
  8
Layer_0
  6
Continuous
100
AcDbCircle
 10
253.1530057132352
 20
23.13126569995461
 30
0.0
 40
1.565679869529005
100
AcDbArc
 50
22.8862950652225
 51
30.67021568956153
1001
AcDbBlockRepETag
1070
     1
1071
      269
1005
F98
  0
ARC
  5
F99
330
8AB
100
AcDbEntity
  8
Layer_0
  6
Continuous
100
AcDbCircle
 10
252.9683643263693
 20
23.05281895993847
 30
0.0
 40
1.7662942814121
100
AcDbArc
 50
13.72945272847666
 51
22.90133326654148
1001
AcDbBlockRepETag
1070
     1
1071
      270
1005
F99
  0
ARC
  5
F9A
330
8AB
100
AcDbEntity
  8
Layer_0
  6
Continuous
100
AcDbCircle
 10
252.6637473872183
 20
22.97654447792968
 30
0.0
 40
2.080311050341863
100
AcDbArc
 50
7.229658660248677
 51
13.77897521605842
1001
AcDbBlockRepETag
1070
     1
1071
      271
1005
F9A
  0
ARC
  5
F9B
330
8AB
100
AcDbEntity
  8
Layer_0
  6
Continuous
100
AcDbCircle
 10
252.4759656337203
 20
22.94981085368533
 30
0.0
 40
2.269966060132921
100
AcDbArc
 50
355.0691931237637
 51
7.302588346073456
1001
AcDbBlockRepETag
1070
     1
1071
      272
1005
F9B
  0
ARC
  5
F9C
330
8AB
100
AcDbEntity
  8
Layer_0
  6
Continuous
100
AcDbCircle
 10
252.7713124376175
 20
22.92499859439965
 30
0.0
 40
1.973579701581293
100
AcDbArc
 50
348.2193250842619
 51
355.0498756593488
1001
AcDbBlockRepETag
1070
     1
1071
      273
1005
F9C
  0
ARC
  5
F9D
330
8AB
100
AcDbEntity
  8
Layer_0
  6
Continuous
100
AcDbCircle
 10
253.1121717576111
 20
22.85526091850341
 30
0.0
 40
1.625662622070248
100
AcDbArc
 50
342.2147512228455
 51
348.1726929648579
1001
AcDbBlockRepETag
1070
     1
1071
      274
1005
F9D
  0
ARC
  5
F9E
330
8AB
100
AcDbEntity
  8
Layer_0
  6
Continuous
100
AcDbCircle
 10
253.3345554771404
 20
22.78466637795384
 30
0.0
 40
1.392344116244105
100
AcDbArc
 50
329.2217419173194
 51
342.1856802923858
1001
AcDbBlockRepETag
1070
     1
1071
      275
1005
F9E
  0
ARC
  5
F9F
330
8AB
100
AcDbEntity
  8
Layer_0
  6
Continuous
100
AcDbCircle
 10
253.4495385968498
 20
22.71742564825558
 30
0.0
 40
1.259148130097904
100
AcDbArc
 50
316.069842362762
 51
329.1731143898185
1001
AcDbBlockRepETag
1070
     1
1071
      276
1005
F9F
  0
ARC
  5
FA0
330
8AB
100
AcDbEntity
  8
Layer_0
  6
Continuous
100
AcDbCircle
 10
253.5502291448445
 20
22.62205258711833
 30
0.0
 40
1.120464797647014
100
AcDbArc
 50
304.6931208219863
 51
316.009970533128
1001
AcDbBlockRepETag
1070
     1
1071
      277
1005
FA0
  0
ARC
  5
FA1
330
8AB
100
AcDbEntity
  8
Layer_0
  6
Continuous
100
AcDbCircle
 10
253.6377915795349
 20
22.49681593978107
 30
0.0
 40
0.9676550800905156
100
AcDbArc
 50
281.2087185635974
 51
304.6509257893851
1001
AcDbBlockRepETag
1070
     1
1071
      278
1005
FA1
  0
ARC
  5
FA2
330
8AB
100
AcDbEntity
  8
Layer_0
  6
Continuous
100
AcDbCircle
 10
253.6013899443801
 20
22.67025621162748
 30
0.0
 40
1.144864697596539
100
AcDbArc
 50
270.5733530528958
 51
281.3084774860079
1001
AcDbBlockRepETag
1070
     1
1071
      279
1005
FA2
  0
ARC
  5
FA3
330
8AB
100
AcDbEntity
  8
Layer_0
  6
Continuous
100
AcDbCircle
 10
253.5968602528733
 20
22.94107840364791
 30
0.0
 40
1.41571982645707
100
AcDbArc
 50
261.5054676900755
 51
270.6469870439133
1001
AcDbBlockRepETag
1070
     1
1071
      280
1005
FA3
  0
ARC
  5
FA4
330
8AB
100
AcDbEntity
  8
Layer_0
  6
Continuous
100
AcDbCircle
 10
253.5867758799645
 20
22.93464724897228
 30
0.0
 40
1.407898527054511
100
AcDbArc
 50
253.1590374325527
 51
261.8727011206211
1001
AcDbBlockRepETag
1070
     1
1071
      281
1005
FA4
  0
ARC
  5
FA5
330
8AB
100
AcDbEntity
  8
Layer_0
  6
Continuous
100
AcDbCircle
 10
253.4810785568438
 20
22.58360416892322
 30
0.0
 40
1.041288685486134
100
AcDbArc
 50
239.8058055640005
 51
253.1294012662983
1001
AcDbBlockRepETag
1070
     1
1071
      282
1005
FA5
  0
ARC
  5
FA6
330
8AB
100
AcDbEntity
  8
Layer_0
  6
Continuous
100
AcDbCircle
 10
253.3924264266584
 20
22.41576322004801
 30
0.0
 40
0.8516690147160524
100
AcDbArc
 50
221.3514919661945
 51
239.2818409554796
1001
AcDbBlockRepETag
1070
     1
1071
      283
1005
FA6
  0
LINE
  5
FA7
330
8AB
100
AcDbEntity
  8
Layer_0
  6
Continuous
100
AcDbLine
 10
252.7531034649864
 20
21.85308546030785
 30
0.0
 11
252.7531034649864
 21
20.49662808608559
 31
0.0
1001
AcDbBlockRepETag
1070
     1
1071
      284
1005
FA7
  0
LINE
  5
FA8
330
8AB
100
AcDbEntity
  8
Layer_0
  6
Continuous
100
AcDbLine
 10
252.7531034649864
 20
20.49662808608559
 30
0.0
 11
251.6518883538754
 21
20.49662808608559
 31
0.0
1001
AcDbBlockRepETag
1070
     1
1071
      285
1005
FA8
  0
LINE
  5
FA9
330
8AB
100
AcDbEntity
  8
Layer_0
  6
Continuous
100
AcDbLine
 10
252.745075435653
 20
22.98960221853008
 30
0.0
 11
252.7452334553857
 21
22.90481384045666
 31
0.0
1001
AcDbBlockRepETag
1070
     1
1071
      286
1005
FA9
  0
ARC
  5
FAA
330
8AB
100
AcDbEntity
  8
Layer_0
  6
Continuous
100
AcDbCircle
 10
253.5670806114515
 20
22.91255835602862
 30
0.0
 40
0.8218836447181578
100
AcDbArc
 50
180.5398995663987
 51
188.9432178444094
1001
AcDbBlockRepETag
1070
     1
1071
      287
1005
FAA
  0
ARC
  5
FAB
330
8AB
100
AcDbEntity
  8
Layer_0
  6
Continuous
100
AcDbCircle
 10
253.3309832915313
 20
22.8775120378325
 30
0.0
 40
0.5832121592560086
100
AcDbArc
 50
189.1477952673581
 51
200.6436014752411
1001
AcDbBlockRepETag
1070
     1
1071
      288
1005
FAB
  0
ARC
  5
FAC
330
8AB
100
AcDbEntity
  8
Layer_0
  6
Continuous
100
AcDbCircle
 10
253.304486819567
 20
22.87481200174534
 30
0.0
 40
0.5575067295392771
100
AcDbArc
 50
201.3439820553191
 51
234.4807116633171
1001
AcDbBlockRepETag
1070
     1
1071
      289
1005
FAC
  0
ARC
  5
FAD
330
8AB
100
AcDbEntity
  8
Layer_0
  6
Continuous
100
AcDbCircle
 10
253.2281009053222
 20
22.76689969767608
 30
0.0
 40
0.425296611432071
100
AcDbArc
 50
234.4103147699086
 51
289.5610085058056
1001
AcDbBlockRepETag
1070
     1
1071
      290
1005
FAD
  0
ARC
  5
FAE
330
8AB
100
AcDbEntity
  8
Layer_0
  6
Continuous
100
AcDbCircle
 10
253.2412264628991
 20
22.72220202828998
 30
0.0
 40
0.3787929758373425
100
AcDbArc
 50
289.9538642423603
 51
320.9196998933839
1001
AcDbBlockRepETag
1070
     1
1071
      291
1005
FAE
  0
ARC
  5
FAF
330
8AB
100
AcDbEntity
  8
Layer_0
  6
Continuous
100
AcDbCircle
 10
253.1757905234012
 20
22.77619371949413
 30
0.0
 40
0.4636258032768142
100
AcDbArc
 50
320.8380910723459
 51
333.7570664350023
1001
AcDbBlockRepETag
1070
     1
1071
      292
1005
FAF
  0
ARC
  5
FB0
330
8AB
100
AcDbEntity
  8
Layer_0
  6
Continuous
100
AcDbCircle
 10
253.046980480417
 20
22.84155324630399
 30
0.0
 40
0.6080618764873984
100
AcDbArc
 50
333.6001062703919
 51
342.4626986882559
1001
AcDbBlockRepETag
1070
     1
1071
      293
1005
FB0
  0
ARC
  5
FB1
330
8AB
100
AcDbEntity
  8
Layer_0
  6
Continuous
100
AcDbCircle
 10
252.8772313201823
 20
22.89699583719937
 30
0.0
 40
0.7866294625410749
100
AcDbArc
 50
342.3377298266975
 51
348.0428157043371
1001
AcDbBlockRepETag
1070
     1
1071
      294
1005
FB1
  0
ARC
  5
FB2
330
8AB
100
AcDbEntity
  8
Layer_0
  6
Continuous
100
AcDbCircle
 10
252.5783669485354
 20
22.95995913167212
 30
0.0
 40
1.092054108753274
100
AcDbArc
 50
348.0596974657233
 51
354.0666344926588
1001
AcDbBlockRepETag
1070
     1
1071
      295
1005
FB2
  0
ARC
  5
FB3
330
8AB
100
AcDbEntity
  8
Layer_0
  6
Continuous
100
AcDbCircle
 10
252.2559346728638
 20
22.99564809085689
 30
0.0
 40
1.416449935682145
100
AcDbArc
 50
353.978963760186
 51
7.521947188926156
1001
AcDbBlockRepETag
1070
     1
1071
      296
1005
FB3
  0
ARC
  5
FB4
330
8AB
100
AcDbEntity
  8
Layer_0
  6
Continuous
100
AcDbCircle
 10
252.6577167525366
 20
23.04670277822264
 30
0.0
 40
1.011443850952914
100
AcDbArc
 50
7.634127254104652
 51
14.03086913253447
1001
AcDbBlockRepETag
1070
     1
1071
      297
1005
FB4
  0
ARC
  5
FB5
330
8AB
100
AcDbEntity
  8
Layer_0
  6
Continuous
100
AcDbCircle
 10
252.94232516639
 20
23.11630767356007
 30
0.0
 40
0.718452837561428
100
AcDbArc
 50
14.14838149833524
 51
22.23255525925899
1001
AcDbBlockRepETag
1070
     1
1071
      298
1005
FB5
  0
ARC
  5
FB6
330
8AB
100
AcDbEntity
  8
Layer_0
  6
Continuous
100
AcDbCircle
 10
253.0985188399268
 20
23.18012756129463
 30
0.0
 40
0.5497239395724254
100
AcDbArc
 50
22.23497903385041
 51
33.94595454700992
1001
AcDbBlockRepETag
1070
     1
1071
      299
1005
FB6
  0
ARC
  5
FB7
330
8AB
100
AcDbEntity
  8
Layer_0
  6
Continuous
100
AcDbCircle
 10
253.2005088529322
 20
23.24828094801024
 30
0.0
 40
0.4270592521694593
100
AcDbArc
 50
34.00158776967645
 51
52.66529034511068
1001
AcDbBlockRepETag
1070
     1
1071
      300
1005
FB7
  0
ARC
  5
FB8
330
8AB
100
AcDbEntity
  8
Layer_0
  6
Continuous
100
AcDbCircle
 10
253.2201562050136
 20
23.2669459969718
 30
0.0
 40
0.4003261373726938
100
AcDbArc
 50
53.28100717117532
 51
100.6339071561965
1001
AcDbBlockRepETag
1070
     1
1071
      301
1005
FB8
  0
ARC
  5
FB9
330
8AB
100
AcDbEntity
  8
Layer_0
  6
Continuous
100
AcDbCircle
 10
253.2198940594042
 20
23.25392266700828
 30
0.0
 40
0.4130860043277035
100
AcDbArc
 50
100.2648360037454
 51
126.1339154188998
1001
AcDbBlockRepETag
1070
     1
1071
      302
1005
FB9
  0
ARC
  5
FBA
330
8AB
100
AcDbEntity
  8
Layer_0
  6
Continuous
100
AcDbCircle
 10
253.2997470537127
 20
23.14542042792869
 30
0.0
 40
0.5478043744983154
100
AcDbArc
 50
126.1874185878117
 51
167.7322619132537
1001
AcDbBlockRepETag
1070
     1
1071
      303
1005
FBA
  0
ARC
  5
FBB
330
8AB
100
AcDbEntity
  8
Layer_0
  6
Continuous
100
AcDbCircle
 10
253.5535665163761
 20
23.08823489667202
 30
0.0
 40
0.8079811058540988
100
AcDbArc
 50
167.5941168311288
 51
178.700958010397
1001
AcDbBlockRepETag
1070
     1
1071
      304
1005
FBB
  0
ARC
  5
FBC
330
8AB
100
AcDbEntity
  8
Layer_0
  6
Continuous
100
AcDbCircle
 10
256.1293657757567
 20
23.02731261785414
 30
0.0
 40
3.384500432905364
100
AcDbArc
 50
178.6584384070554
 51
180.638407787599
1001
AcDbBlockRepETag
1070
     1
1071
      305
1005
FBC
  0
LINE
  5
FBD
330
8AB
100
AcDbEntity
  8
Layer_0
  6
Continuous
100
AcDbLine
 10
255.0514391176982
 20
22.96724740966386
 30
0.0
 11
255.0515853577338
 21
23.11115891240536
 31
0.0
1001
AcDbBlockRepETag
1070
     1
1071
      306
1005
FBD
  0
ARC
  5
FBE
330
8AB
100
AcDbEntity
  8
Layer_0
  6
Continuous
100
AcDbCircle
 10
256.2705701532657
 20
23.10268408713171
 30
0.0
 40
1.219014255208455
100
AcDbArc
 50
172.9400003992189
 51
179.6016653375392
1001
AcDbBlockRepETag
1070
     1
1071
      307
1005
FBE
  0
ARC
  5
FBF
330
8AB
100
AcDbEntity
  8
Layer_0
  6
Continuous
100
AcDbCircle
 10
256.0788509264594
 20
23.12219364063356
 30
0.0
 40
1.0263593559843
100
AcDbArc
 50
151.5055100004691
 51
172.7054081293678
1001
AcDbBlockRepETag
1070
     1
1071
      308
1005
FBF
  0
ARC
  5
FC0
330
8AB
100
AcDbEntity
  8
Layer_0
  6
Continuous
100
AcDbCircle
 10
256.2138654572554
 20
23.05184620525801
 30
0.0
 40
1.178582418056822
100
AcDbArc
 50
145.2137102365815
 51
151.6312358853239
1001
AcDbBlockRepETag
1070
     1
1071
      309
1005
FC0
  0
ARC
  5
FC1
330
8AB
100
AcDbEntity
  8
Layer_0
  6
Continuous
100
AcDbCircle
 10
256.4114879143697
 20
22.91483620254451
 30
0.0
 40
1.419053487497617
100
AcDbArc
 50
137.3311386846864
 51
145.2226987603811
1001
AcDbBlockRepETag
1070
     1
1071
      310
1005
FC1
  0
ARC
  5
FC2
330
8AB
100
AcDbEntity
  8
Layer_0
  6
Continuous
100
AcDbCircle
 10
256.5755704616758
 20
22.76102964154347
 30
0.0
 40
1.643945641061578
100
AcDbArc
 50
108.6718393714939
 51
137.2655201889719
1001
AcDbBlockRepETag
1070
     1
1071
      311
1005
FC2
  0
ARC
  5
FC3
330
8AB
100
AcDbEntity
  8
Layer_0
  6
Continuous
100
AcDbCircle
 10
256.6187046874782
 20
22.63860652405731
 30
0.0
 40
1.773735450592888
100
AcDbArc
 50
104.4371398018017
 51
108.7258014194255
1001
AcDbBlockRepETag
1070
     1
1071
      312
1005
FC3
  0
ARC
  5
FC4
330
8AB
100
AcDbEntity
  8
Layer_0
  6
Continuous
100
AcDbCircle
 10
256.6793601595266
 20
22.40032450669264
 30
0.0
 40
2.01961553188581
100
AcDbArc
 50
98.59619757283772
 51
104.4181933713802
1001
AcDbBlockRepETag
1070
     1
1071
      313
1005
FC4
  0
ARC
  5
FC5
330
8AB
100
AcDbEntity
  8
Layer_0
  6
Continuous
100
AcDbCircle
 10
256.7153045819905
 20
22.16727873740888
 30
0.0
 40
2.255416049394943
100
AcDbArc
 50
82.60827607383445
 51
98.61416675715688
1001
AcDbBlockRepETag
1070
     1
1071
      314
1005
FC5
  0
ARC
  5
FC6
330
8AB
100
AcDbEntity
  8
Layer_0
  6
Continuous
100
AcDbCircle
 10
256.7525787341137
 20
22.47478449815242
 30
0.0
 40
1.945672062302688
100
AcDbArc
 50
76.52867604604153
 51
82.53180170968986
1001
AcDbBlockRepETag
1070
     1
1071
      315
1005
FC6
  0
ARC
  5
FC7
330
8AB
100
AcDbEntity
  8
Layer_0
  6
Continuous
100
AcDbCircle
 10
256.8144159852074
 20
22.73804487666689
 30
0.0
 40
1.675249763229235
100
AcDbArc
 50
71.98715224693909
 51
76.48787768550815
1001
AcDbBlockRepETag
1070
     1
1071
      316
1005
FC7
  0
ARC
  5
FC8
330
8AB
100
AcDbEntity
  8
Layer_0
  6
Continuous
100
AcDbCircle
 10
256.8951975577525
 20
22.98152681630359
 30
0.0
 40
1.41872227488509
100
AcDbArc
 50
61.92296652968074
 51
72.04895258545526
1001
AcDbBlockRepETag
1070
     1
1071
      317
1005
FC8
  0
ARC
  5
FC9
330
8AB
100
AcDbEntity
  8
Layer_0
  6
Continuous
100
AcDbCircle
 10
256.9497291246808
 20
23.08569651644223
 30
0.0
 40
1.301146313134754
100
AcDbArc
 50
33.83096086917628
 51
61.8827064865334
1001
AcDbBlockRepETag
1070
     1
1071
      318
1005
FC9
  0
ARC
  5
FCA
330
8AB
100
AcDbEntity
  8
Layer_0
  6
Continuous
100
AcDbCircle
 10
256.8641375127481
 20
23.0273498972258
 30
0.0
 40
1.404730273662166
100
AcDbArc
 50
22.34236851969374
 51
33.86419972740684
1001
AcDbBlockRepETag
1070
     1
1071
      319
1005
FCA
  0
ARC
  5
FCB
330
8AB
100
AcDbEntity
  8
Layer_0
  6
Continuous
100
AcDbCircle
 10
256.7238128162401
 20
22.96987701515468
 30
0.0
 40
1.556368401526523
100
AcDbArc
 50
5.532096219894168
 51
22.33556779178066
1001
AcDbBlockRepETag
1070
     1
1071
      320
1005
FCB
  0
ARC
  5
FCC
330
8AB
100
AcDbEntity
  8
Layer_0
  6
Continuous
100
AcDbCircle
 10
256.707150039193
 20
22.96362090504226
 30
0.0
 40
1.573563463167109
100
AcDbArc
 50
351.1319269182274
 51
5.700340232080407
1001
AcDbBlockRepETag
1070
     1
1071
      321
1005
FCC
  0
ARC
  5
FCD
330
8AB
100
AcDbEntity
  8
Layer_0
  6
Continuous
100
AcDbCircle
 10
256.8443515956133
 20
22.94315826791081
 30
0.0
 40
1.434847811309403
100
AcDbArc
 50
339.7936604357473
 51
351.0946729205635
1001
AcDbBlockRepETag
1070
     1
1071
      322
1005
FCD
  0
ARC
  5
FCE
330
8AB
100
AcDbEntity
  8
Layer_0
  6
Continuous
100
AcDbCircle
 10
256.9382430155308
 20
22.91236578226312
 30
0.0
 40
1.33610384018856
100
AcDbArc
 50
313.0415119186029
 51
339.6421585154404
1001
AcDbBlockRepETag
1070
     1
1071
      323
1005
FCE
  0
ARC
  5
FCF
330
8AB
100
AcDbEntity
  8
Layer_0
  6
Continuous
100
AcDbCircle
 10
256.8807053602566
 20
22.97168392759852
 30
0.0
 40
1.41872899179073
100
AcDbArc
 50
296.5999395913854
 51
313.1047406259849
1001
AcDbBlockRepETag
1070
     1
1071
      324
1005
FCF
  0
ARC
  5
FD0
330
8AB
100
AcDbEntity
  8
Layer_0
  6
Continuous
100
AcDbCircle
 10
256.8320755123493
 20
23.06386736274204
 30
0.0
 40
1.522931253674253
100
AcDbArc
 50
287.4894181851971
 51
296.6829610613853
1001
AcDbBlockRepETag
1070
     1
1071
      325
1005
FD0
  0
ARC
  5
FD1
330
8AB
100
AcDbEntity
  8
Layer_0
  6
Continuous
100
AcDbCircle
 10
256.7648610702856
 20
23.27512844421165
 30
0.0
 40
1.74462629958709
100
AcDbArc
 50
281.2796566651382
 51
287.5096833841389
1001
AcDbBlockRepETag
1070
     1
1071
      326
1005
FD1
  0
ARC
  5
FD2
330
8AB
100
AcDbEntity
  8
Layer_0
  6
Continuous
100
AcDbCircle
 10
256.7180347743668
 20
23.50847209773633
 30
0.0
 40
1.982621874147124
100
AcDbArc
 50
273.7909316464815
 51
281.2877560498555
1001
AcDbBlockRepETag
1070
     1
1071
      327
1005
FD2
  0
ARC
  5
FD3
330
8AB
100
AcDbEntity
  8
Layer_0
  6
Continuous
100
AcDbCircle
 10
256.7055455322168
 20
23.66174103781168
 30
0.0
 40
2.136382460620867
100
AcDbArc
 50
259.7783585614767
 51
273.8533768904413
1001
AcDbBlockRepETag
1070
     1
1071
      328
1005
FD3
  0
ARC
  5
FD4
330
8AB
100
AcDbEntity
  8
Layer_0
  6
Continuous
100
AcDbCircle
 10
256.6669796082356
 20
23.44584630254906
 30
0.0
 40
1.917070526811943
100
AcDbArc
 50
252.1152360717929
 51
259.7676563476973
1001
AcDbBlockRepETag
1070
     1
1071
      329
1005
FD4
  0
ARC
  5
FD5
330
8AB
100
AcDbEntity
  8
Layer_0
  6
Continuous
100
AcDbCircle
 10
256.6333350277071
 20
23.32825708537882
 30
0.0
 40
1.794835976147765
100
AcDbArc
 50
231.2147684927027
 51
251.9845665353193
1001
AcDbBlockRepETag
1070
     1
1071
      330
1005
FD5
  0
ARC
  5
FD6
330
8AB
100
AcDbEntity
  8
Layer_0
  6
Continuous
100
AcDbCircle
 10
256.5071452786317
 20
23.16865141206199
 30
0.0
 40
1.591378632432876
100
AcDbArc
 50
223.5828829833021
 51
231.156708007809
1001
AcDbBlockRepETag
1070
     1
1071
      331
1005
FD6
  0
ARC
  5
FD7
330
8AB
100
AcDbEntity
  8
Layer_0
  6
Continuous
100
AcDbCircle
 10
256.3247644409655
 20
22.99377319668679
 30
0.0
 40
1.338704730189856
100
AcDbArc
 50
217.3165979285772
 51
223.5424812420979
1001
AcDbBlockRepETag
1070
     1
1071
      332
1005
FD7
  0
ARC
  5
FD8
330
8AB
100
AcDbEntity
  8
Layer_0
  6
Continuous
100
AcDbCircle
 10
256.1167888221835
 20
22.83531927392926
 30
0.0
 40
1.07724440992668
100
AcDbArc
 50
210.2254228446609
 51
217.3198243307828
1001
AcDbBlockRepETag
1070
     1
1071
      333
1005
FD8
  0
ARC
  5
FD9
330
8AB
100
AcDbEntity
  8
Layer_0
  6
Continuous
100
AcDbCircle
 10
256.0338442288323
 20
22.78455973233292
 30
0.0
 40
0.9800257418716103
100
AcDbArc
 50
187.1705015941988
 51
210.1023996698685
1001
AcDbBlockRepETag
1070
     1
1071
      334
1005
FD9
  0
ARC
  5
FDA
330
8AB
100
AcDbEntity
  8
Layer_0
  6
Continuous
100
AcDbCircle
 10
256.2876001277321
 20
22.81835591538402
 30
0.0
 40
1.236016957898214
100
AcDbArc
 50
180.2616307503654
 51
187.2566034788539
1001
AcDbBlockRepETag
1070
     1
1071
      335
1005
FDA
  0
ARC
  5
FDB
330
8AB
100
AcDbEntity
  8
Layer_0
  6
Continuous
100
AcDbCircle
 10
274.8829271574777
 20
22.91011941399552
 30
0.0
 40
19.83157032309353
100
AcDbArc
 50
179.8349501568626
 51
180.2814231275571
1001
AcDbBlockRepETag
1070
     1
1071
      336
1005
FDB
  0
LINE
  5
FDC
330
8AB
100
AcDbEntity
  8
Layer_0
  6
Continuous
100
AcDbLine
 10
256.1412426732538
 20
22.97090481321936
 30
0.0
 11
256.1414157840554
 21
22.875138948418
 31
0.0
1001
AcDbBlockRepETag
1070
     1
1071
      337
1005
FDC
  0
ARC
  5
FDD
330
8AB
100
AcDbEntity
  8
Layer_0
  6
Continuous
100
AcDbCircle
 10
257.0951695135675
 20
22.88379668841685
 30
0.0
 40
0.9537930242038683
100
AcDbArc
 50
180.5200905875346
 51
188.6884056930345
1001
AcDbBlockRepETag
1070
     1
1071
      338
1005
FDD
  0
ARC
  5
FDE
330
8AB
100
AcDbEntity
  8
Layer_0
  6
Continuous
100
AcDbCircle
 10
256.8134888199984
 20
22.8430628477712
 30
0.0
 40
0.6691953777688299
100
AcDbArc
 50
188.8840032204496
 51
200.1417989678499
1001
AcDbBlockRepETag
1070
     1
1071
      339
1005
FDE
  0
ARC
  5
FDF
330
8AB
100
AcDbEntity
  8
Layer_0
  6
Continuous
100
AcDbCircle
 10
256.7581949038768
 20
22.82952343689567
 30
0.0
 40
0.6126535205328062
100
AcDbArc
 50
200.7336815388745
 51
232.3710740670548
1001
AcDbBlockRepETag
1070
     1
1071
      340
1005
FDF
  0
ARC
  5
FE0
330
8AB
100
AcDbEntity
  8
Layer_0
  6
Continuous
100
AcDbCircle
 10
256.6837637793258
 20
22.73423354981401
 30
0.0
 40
0.4917427371648037
100
AcDbArc
 50
232.4607100291265
 51
297.2141631514883
1001
AcDbBlockRepETag
1070
     1
1071
      341
1005
FE0
  0
ARC
  5
FE1
330
8AB
100
AcDbEntity
  8
Layer_0
  6
Continuous
100
AcDbCircle
 10
256.6964438731332
 20
22.70155061000412
 30
0.0
 40
0.4568935971205895
100
AcDbArc
 50
297.6744016429185
 51
319.5486294378958
1001
AcDbBlockRepETag
1070
     1
1071
      342
1005
FE1
  0
ARC
  5
FE2
330
8AB
100
AcDbEntity
  8
Layer_0
  6
Continuous
100
AcDbCircle
 10
256.6356564783591
 20
22.75437873766339
 30
0.0
 40
0.5374257410036061
100
AcDbArc
 50
319.4675066209907
 51
332.1602433870556
1001
AcDbBlockRepETag
1070
     1
1071
      343
1005
FE2
  0
ARC
  5
FE3
330
8AB
100
AcDbEntity
  8
Layer_0
  6
Continuous
100
AcDbCircle
 10
256.5211973747015
 20
22.81639566122487
 30
0.0
 40
0.6676003842572471
100
AcDbArc
 50
332.041251709901
 51
341.0522955025569
1001
AcDbBlockRepETag
1070
     1
1071
      344
1005
FE3
  0
ARC
  5
FE4
330
8AB
100
AcDbEntity
  8
Layer_0
  6
Continuous
100
AcDbCircle
 10
256.373560455098
 20
22.86860228975718
 30
0.0
 40
0.8241906582306215
100
AcDbArc
 50
340.952233066022
 51
346.9348208232776
1001
AcDbBlockRepETag
1070
     1
1071
      345
1005
FE4
  0
ARC
  5
FE5
330
8AB
100
AcDbEntity
  8
Layer_0
  6
Continuous
100
AcDbCircle
 10
256.1023442361384
 20
22.93105642976286
 30
0.0
 40
1.102504490799063
100
AcDbArc
 50
346.9594299739749
 51
353.4158802018374
1001
AcDbBlockRepETag
1070
     1
1071
      346
1005
FE5
  0
ARC
  5
FE6
330
8AB
100
AcDbEntity
  8
Layer_0
  6
Continuous
100
AcDbCircle
 10
255.8059284263775
 20
22.96720130796723
 30
0.0
 40
1.401111066471409
100
AcDbArc
 50
353.3374099461259
 51
8.060359901865181
1001
AcDbBlockRepETag
1070
     1
1071
      347
1005
FE6
  0
ARC
  5
FE7
330
8AB
100
AcDbEntity
  8
Layer_0
  6
Continuous
100
AcDbCircle
 10
256.1689201651657
 20
23.01671789368731
 30
0.0
 40
1.03476401778512
100
AcDbArc
 50
8.163899815758361
 51
14.92231978239237
1001
AcDbBlockRepETag
1070
     1
1071
      348
1005
FE7
  0
ARC
  5
FE8
330
8AB
100
AcDbEntity
  8
Layer_0
  6
Continuous
100
AcDbCircle
 10
256.4336938502099
 20
23.08567138685055
 30
0.0
 40
0.7611650277289744
100
AcDbArc
 50
15.03926320058391
 51
23.37770641101925
1001
AcDbBlockRepETag
1070
     1
1071
      349
1005
FE8
  0
ARC
  5
FE9
330
8AB
100
AcDbEntity
  8
Layer_0
  6
Continuous
100
AcDbCircle
 10
256.5789313891414
 20
23.14836475772779
 30
0.0
 40
0.6029740262207829
100
AcDbArc
 50
23.38550767112353
 51
35.2258917977839
1001
AcDbBlockRepETag
1070
     1
1071
      350
1005
FE9
  0
ARC
  5
FEA
330
8AB
100
AcDbEntity
  8
Layer_0
  6
Continuous
100
AcDbCircle
 10
256.6732720903531
 20
23.21436034039527
 30
0.0
 40
0.4878424949324507
100
AcDbArc
 50
35.28521478678376
 51
53.75603884728609
1001
AcDbBlockRepETag
1070
     1
1071
      351
1005
FEA
  0
ARC
  5
FEB
330
8AB
100
AcDbEntity
  8
Layer_0
  6
Continuous
100
AcDbCircle
 10
256.6899926328078
 20
23.23139797758722
 30
0.0
 40
0.4642284659435544
100
AcDbArc
 50
54.17717685884639
 51
83.01952571193004
1001
AcDbBlockRepETag
1070
     1
1071
      352
1005
FEB
  0
ARC
  5
FEC
330
8AB
100
AcDbEntity
  8
Layer_0
  6
Continuous
100
AcDbCircle
 10
256.6837743888975
 20
23.21033809949426
 30
0.0
 40
0.4859013809349186
100
AcDbArc
 50
82.59352232688923
 51
127.8552643208367
1001
AcDbBlockRepETag
1070
     1
1071
      353
1005
FEC
  0
ARC
  5
FED
330
8AB
100
AcDbEntity
  8
Layer_0
  6
Continuous
100
AcDbCircle
 10
256.7641665950346
 20
23.10415723522931
 30
0.0
 40
0.6190744033243656
100
AcDbArc
 50
127.6993026702627
 51
171.1767988945917
1001
AcDbBlockRepETag
1070
     1
1071
      354
1005
FED
  0
ARC
  5
FEE
330
8AB
100
AcDbEntity
  8
Layer_0
  6
Continuous
100
AcDbCircle
 10
257.0480580217991
 20
23.05747073738803
 30
0.0
 40
0.9067711096176084
100
AcDbArc
 50
171.0132049168526
 51
180.2330212340836
1001
AcDbBlockRepETag
1070
     1
1071
      355
1005
FEE
  0
ARC
  5
FEF
330
8AB
100
AcDbEntity
  8
Layer_0
  6
Continuous
100
AcDbCircle
 10
273.4399028366122
 20
23.00154489543638
 30
0.0
 40
17.29868729880962
100
AcDbArc
 50
179.8269797664061
 51
180.1014844816173
1001
AcDbBlockRepETag
1070
     1
1071
      356
1005
FEF
  0
LINE
  5
FF0
330
8AB
100
AcDbEntity
  8
Layer_0
  6
Continuous
100
AcDbLine
 10
258.5861603245214
 20
24.36683591052418
 30
0.0
 11
259.6066900320768
 21
24.36683591052418
 31
0.0
1001
AcDbBlockRepETag
1070
     1
1071
      357
1005
FF0
  0
LINE
  5
FF1
330
8AB
100
AcDbEntity
  8
Layer_0
  6
Continuous
100
AcDbLine
 10
259.6066900320768
 20
24.36683591052418
 30
0.0
 11
259.6066900320768
 21
23.90101050696864
 31
0.0
1001
AcDbBlockRepETag
1070
     1
1071
      358
1005
FF1
  0
LINE
  5
FF2
330
8AB
100
AcDbEntity
  8
Layer_0
  6
Continuous
100
AcDbLine
 10
259.6066900320768
 20
23.90101050696864
 30
0.0
 11
259.6570309920287
 21
24.00287825831128
 31
0.0
1001
AcDbBlockRepETag
1070
     1
1071
      359
1005
FF2
  0
ARC
  5
FF3
330
8AB
100
AcDbEntity
  8
Layer_0
  6
Continuous
100
AcDbCircle
 10
260.5553499698226
 20
23.54265125565041
 30
0.0
 40
1.009349235816269
100
AcDbArc
 50
140.5785784128452
 51
152.8730175524932
1001
AcDbBlockRepETag
1070
     1
1071
      360
1005
FF3
  0
ARC
  5
FF4
330
8AB
100
AcDbEntity
  8
Layer_0
  6
Continuous
100
AcDbCircle
 10
260.2805666788281
 20
23.75973852103607
 30
0.0
 40
0.659260570366233
100
AcDbArc
 50
96.56658392895186
 51
139.9881397754924
1001
AcDbBlockRepETag
1070
     1
1071
      361
1005
FF4
  0
ARC
  5
FF5
330
8AB
100
AcDbEntity
  8
Layer_0
  6
Continuous
100
AcDbCircle
 10
260.3226724190683
 20
23.46282757451559
 30
0.0
 40
0.9590711253297271
100
AcDbArc
 50
58.56727345232149
 51
97.03707488780224
1001
AcDbBlockRepETag
1070
     1
1071
      362
1005
FF5
  0
LINE
  5
FF6
330
8AB
100
AcDbEntity
  8
Layer_0
  6
Continuous
100
AcDbLine
 10
260.8228252134102
 20
24.28115795141309
 30
0.0
 11
260.486093032077
 21
23.5049040020798
 31
0.0
1001
AcDbBlockRepETag
1070
     1
1071
      363
1005
FF6
  0
LINE
  5
FF7
330
8AB
100
AcDbEntity
  8
Layer_0
  6
Continuous
100
AcDbLine
 10
260.486093032077
 20
23.5049040020798
 30
0.0
 11
260.4129390439851
 21
23.53463597825464
 31
0.0
1001
AcDbBlockRepETag
1070
     1
1071
      364
1005
FF7
  0
ARC
  5
FF8
330
8AB
100
AcDbEntity
  8
Layer_0
  6
Continuous
100
AcDbCircle
 10
260.1678554013949
 20
22.88421851982901
 30
0.0
 40
0.6950603298203541
100
AcDbArc
 50
69.35310149525824
 51
87.10987563782875
1001
AcDbBlockRepETag
1070
     1
1071
      365
1005
FF8
  0
ARC
  5
FF9
330
8AB
100
AcDbEntity
  8
Layer_0
  6
Continuous
100
AcDbCircle
 10
260.1847704441805
 20
23.20464658480307
 30
0.0
 40
0.3741876856823305
100
AcDbArc
 50
87.2227697626568
 51
134.6883834821398
1001
AcDbBlockRepETag
1070
     1
1071
      366
1005
FF9
  0
ARC
  5
FFA
330
8AB
100
AcDbEntity
  8
Layer_0
  6
Continuous
100
AcDbCircle
 10
260.3414269431994
 20
23.04106984279065
 30
0.0
 40
0.6006612079081341
100
AcDbArc
 50
134.3390955960169
 51
149.2652415429868
1001
AcDbBlockRepETag
1070
     1
1071
      367
1005
FFA
  0
ARC
  5
FFB
330
8AB
100
AcDbEntity
  8
Layer_0
  6
Continuous
100
AcDbCircle
 10
260.5563883533327
 20
22.90907109995726
 30
0.0
 40
0.8528971130687985
100
AcDbArc
 50
149.023442291846
 51
166.8517107270753
1001
AcDbBlockRepETag
1070
     1
1071
      368
1005
FFB
  0
ARC
  5
FFC
330
8AB
100
AcDbEntity
  8
Layer_0
  6
Continuous
100
AcDbCircle
 10
261.0746382257353
 20
22.78408400591752
 30
0.0
 40
1.385997206434459
100
AcDbArc
 50
166.6936664507377
 51
174.61403582113
1001
AcDbBlockRepETag
1070
     1
1071
      369
1005
FFC
  0
ARC
  5
FFD
330
8AB
100
AcDbEntity
  8
Layer_0
  6
Continuous
100
AcDbCircle
 10
262.678625066741
 20
22.62920099008943
 30
0.0
 40
2.997442645096247
100
AcDbArc
 50
174.544421279949
 51
181.0330892692329
1001
AcDbBlockRepETag
1070
     1
1071
      370
1005
FFD
  0
LINE
  5
FFE
330
8AB
100
AcDbEntity
  8
Layer_0
  6
Continuous
100
AcDbLine
 10
259.6816696578546
 20
22.57515760207582
 30
0.0
 11
259.6816696578546
 21
22.47768712296863
 31
0.0
1001
AcDbBlockRepETag
1070
     1
1071
      371
1005
FFE
  0
LINE
  5
FFF
330
8AB
100
AcDbEntity
  8
Layer_0
  6
Continuous
100
AcDbLine
 10
259.6816696578546
 20
22.47768712296863
 30
0.0
 11
259.6816696578546
 21
21.5253585771909
 31
0.0
1001
AcDbBlockRepETag
1070
     1
1071
      372
1005
FFF
  0
LINE
  5
1000
330
8AB
100
AcDbEntity
  8
Layer_0
  6
Continuous
100
AcDbLine
 10
259.6816696578546
 20
21.5253585771909
 30
0.0
 11
258.5861603245214
 21
21.5253585771909
 31
0.0
1001
AcDbBlockRepETag
1070
     1
1071
      373
1005
1000
  0
LINE
  5
1001
330
8AB
100
AcDbEntity
  8
Layer_0
  6
Continuous
100
AcDbLine
 10
258.5861603245214
 20
21.5253585771909
 30
0.0
 11
258.5861603245214
 21
24.36683591052418
 31
0.0
1001
AcDbBlockRepETag
1070
     1
1071
      374
1005
1001
  0
LINE
  5
1002
330
8AB
100
AcDbEntity
  8
Layer_0
  6
Continuous
100
AcDbLine
 10
262.2340065040658
 20
23.49846980424843
 30
0.0
 11
261.1955549485103
 21
23.60687958202618
 31
0.0
1001
AcDbBlockRepETag
1070
     1
1071
      375
1005
1002
  0
LINE
  5
1003
330
8AB
100
AcDbEntity
  8
Layer_0
  6
Continuous
100
AcDbLine
 10
261.1955549485103
 20
23.60687958202618
 30
0.0
 11
261.2125606844379
 21
23.68462030213994
 31
0.0
1001
AcDbBlockRepETag
1070
     1
1071
      376
1005
1003
  0
ARC
  5
1004
330
8AB
100
AcDbEntity
  8
Layer_0
  6
Continuous
100
AcDbCircle
 10
262.1886781449127
 20
23.46312942417569
 30
0.0
 40
1.000931319154779
100
AcDbArc
 50
155.9355265772609
 51
167.2154938326796
1001
AcDbBlockRepETag
1070
     1
1071
      377
1005
1004
  0
ARC
  5
1005
330
8AB
100
AcDbEntity
  8
Layer_0
  6
Continuous
100
AcDbCircle
 10
262.0948238232395
 20
23.49392055344515
 30
0.0
 40
0.9027357393405168
100
AcDbArc
 50
116.0415186273919
 51
155.29095539341
1001
AcDbBlockRepETag
1070
     1
1071
      378
1005
1005
  0
ARC
  5
1006
330
8AB
100
AcDbEntity
  8
Layer_0
  6
Continuous
100
AcDbCircle
 10
262.2377768049235
 20
23.21172415259594
 30
0.0
 40
1.219050515223353
100
AcDbArc
 50
106.8598011412337
 51
116.2553388187583
1001
AcDbBlockRepETag
1070
     1
1071
      379
1005
1006
  0
ARC
  5
1007
330
8AB
100
AcDbEntity
  8
Layer_0
  6
Continuous
100
AcDbCircle
 10
262.3825365489044
 20
22.74991982411894
 30
0.0
 40
1.702996249520396
100
AcDbArc
 50
100.2750772815816
 51
107.014567307869
1001
AcDbBlockRepETag
1070
     1
1071
      380
1005
1007
  0
ARC
  5
1008
330
8AB
100
AcDbEntity
  8
Layer_0
  6
Continuous
100
AcDbCircle
 10
262.5412812512045
 20
21.89783425716291
 30
0.0
 40
2.569736092155666
100
AcDbArc
 50
95.22330725872723
 51
100.368917538486
1001
AcDbBlockRepETag
1070
     1
1071
      381
1005
1008
  0
ARC
  5
1009
330
8AB
100
AcDbEntity
  8
Layer_0
  6
Continuous
100
AcDbCircle
 10
262.7061731841548
 20
20.15106085618549
 30
0.0
 40
4.324270414337932
100
AcDbArc
 50
90.78469547275023
 51
95.29200757008014
1001
AcDbBlockRepETag
1070
     1
1071
      382
1005
1009
  0
ARC
  5
100A
330
8AB
100
AcDbEntity
  8
Layer_0
  6
Continuous
100
AcDbCircle
 10
262.7394674789007
 20
19.40118091222483
 30
0.0
 40
5.074588221554837
100
AcDbArc
 50
85.71541432199081
 51
91.04462576353915
1001
AcDbBlockRepETag
1070
     1
1071
      383
1005
100A
  0
ARC
  5
100B
330
8AB
100
AcDbEntity
  8
Layer_0
  6
Continuous
100
AcDbCircle
 10
262.8842520327216
 20
21.40848066967249
 30
0.0
 40
3.062086503422501
100
AcDbArc
 50
81.27665854019284
 51
85.61088610653214
1001
AcDbBlockRepETag
1070
     1
1071
      384
1005
100B
  0
ARC
  5
100C
330
8AB
100
AcDbEntity
  8
Layer_0
  6
Continuous
100
AcDbCircle
 10
263.0545080748707
 20
22.5400879248964
 30
0.0
 40
1.917750748494274
100
AcDbArc
 50
75.81416026793845
 51
81.17696127915989
1001
AcDbBlockRepETag
1070
     1
1071
      385
1005
100C
  0
ARC
  5
100D
330
8AB
100
AcDbEntity
  8
Layer_0
  6
Continuous
100
AcDbCircle
 10
263.2040624947197
 20
23.14219220705274
 30
0.0
 40
1.297358626598146
100
AcDbArc
 50
69.6707344141372
 51
75.70099303542213
1001
AcDbBlockRepETag
1070
     1
1071
      386
1005
100D
  0
ARC
  5
100E
330
8AB
100
AcDbEntity
  8
Layer_0
  6
Continuous
100
AcDbCircle
 10
263.3359920216431
 20
23.49888434112313
 30
0.0
 40
0.9170500449947523
100
AcDbArc
 50
58.80316380600238
 51
69.65772461714838
1001
AcDbBlockRepETag
1070
     1
1071
      387
1005
100E
  0
ARC
  5
100F
330
8AB
100
AcDbEntity
  8
Layer_0
  6
Continuous
100
AcDbCircle
 10
263.4033157428167
 20
23.61598454804323
 30
0.0
 40
0.7820170530999599
100
AcDbArc
 50
32.2252984272215
 51
58.57843178448153
1001
AcDbBlockRepETag
1070
     1
1071
      388
1005
100F
  0
ARC
  5
1010
330
8AB
100
AcDbEntity
  8
Layer_0
  6
Continuous
100
AcDbCircle
 10
263.1475002353766
 20
23.4508193059147
 30
0.0
 40
1.086505556896042
100
AcDbArc
 50
23.09877590657478
 51
32.39980828485995
1001
AcDbBlockRepETag
1070
     1
1071
      389
1005
1010
  0
ARC
  5
1011
330
8AB
100
AcDbEntity
  8
Layer_0
  6
Continuous
100
AcDbCircle
 10
262.9544084095142
 20
23.35959256883939
 30
0.0
 40
1.299932640044629
100
AcDbArc
 50
11.9810426340773
 51
23.45842853614561
1001
AcDbBlockRepETag
1070
     1
1071
      390
1005
1011
  0
ARC
  5
1012
330
8AB
100
AcDbEntity
  8
Layer_0
  6
Continuous
100
AcDbCircle
 10
263.409927193406
 20
23.46251023504727
 30
0.0
 40
0.8329946953176181
100
AcDbArc
 50
358.051574609969
 51
11.56039776617409
1001
AcDbBlockRepETag
1070
     1
1071
      391
1005
1012
  0
LINE
  5
1013
330
8AB
100
AcDbEntity
  8
Layer_0
  6
Continuous
100
AcDbLine
 10
264.2424402818435
 20
23.434188511804
 30
0.0
 11
264.2424402818435
 21
22.17998438113728
 31
0.0
1001
AcDbBlockRepETag
1070
     1
1071
      392
1005
1013
  0
LINE
  5
1014
330
8AB
100
AcDbEntity
  8
Layer_0
  6
Continuous
100
AcDbLine
 10
264.2424402818435
 20
22.17998438113728
 30
0.0
 11
264.2442696454916
 21
22.0565296693767
 31
0.0
1001
AcDbBlockRepETag
1070
     1
1071
      393
1005
1014
  0
ARC
  5
1015
330
8AB
100
AcDbEntity
  8
Layer_0
  6
Continuous
100
AcDbCircle
 10
265.3610334684213
 20
22.10975308630953
 30
0.0
 40
1.118031380737803
100
AcDbArc
 50
182.728572896806
 51
208.538023006643
1001
AcDbBlockRepETag
1070
     1
1071
      394
1005
1015
  0
LINE
  5
1016
330
8AB
100
AcDbEntity
  8
Layer_0
  6
Continuous
100
AcDbLine
 10
264.3788426053991
 20
21.57562269313723
 30
0.0
 11
263.3551005449547
 21
21.57562269313723
 31
0.0
1001
AcDbBlockRepETag
1070
     1
1071
      395
1005
1016
  0
LINE
  5
1017
330
8AB
100
AcDbEntity
  8
Layer_0
  6
Continuous
100
AcDbLine
 10
263.3551005449547
 20
21.57562269313723
 30
0.0
 11
263.3024992668122
 21
21.67530309023016
 31
0.0
1001
AcDbBlockRepETag
1070
     1
1071
      396
1005
1017
  0
ARC
  5
1018
330
8AB
100
AcDbEntity
  8
Layer_0
  6
Continuous
100
AcDbCircle
 10
264.03426398025
 20
22.00037339144626
 30
0.0
 40
0.80071861260081
100
AcDbArc
 50
185.4391848298221
 51
203.9521275406812
1001
AcDbBlockRepETag
1070
     1
1071
      397
1005
1018
  0
LINE
  5
1019
330
8AB
100
AcDbEntity
  8
Layer_0
  6
Continuous
100
AcDbLine
 10
263.2371507067325
 20
21.92447394647059
 30
0.0
 11
263.1831070114149
 21
21.87254905809061
 31
0.0
1001
AcDbBlockRepETag
1070
     1
1071
      398
1005
1019
  0
ARC
  5
101A
330
8AB
100
AcDbEntity
  8
Layer_0
  6
Continuous
100
AcDbCircle
 10
262.4168451147243
 20
22.68601778418349
 30
0.0
 40
1.11753687306108
100
AcDbArc
 50
295.5550608127443
 51
313.2883490506998
1001
AcDbBlockRepETag
1070
     1
1071
      399
1005
101A
  0
ARC
  5
101B
330
8AB
100
AcDbEntity
  8
Layer_0
  6
Continuous
100
AcDbCircle
 10
262.3080817301127
 20
22.90139144498971
 30
0.0
 40
1.35876894782327
100
AcDbArc
 50
285.8571390925945
 51
295.7749926672786
1001
AcDbBlockRepETag
1070
     1
1071
      400
1005
101B
  0
ARC
  5
101C
330
8AB
100
AcDbEntity
  8
Layer_0
  6
Continuous
100
AcDbCircle
 10
262.218394916463
 20
23.20662162011956
 30
0.0
 40
1.676892346397623
100
AcDbArc
 50
278.270261646873
 51
285.9552988486066
1001
AcDbBlockRepETag
1070
     1
1071
      401
1005
101C
  0
ARC
  5
101D
330
8AB
100
AcDbEntity
  8
Layer_0
  6
Continuous
100
AcDbCircle
 10
262.1624531714222
 20
23.56058026895983
 30
0.0
 40
2.035221691768946
100
AcDbArc
 50
266.5471568729456
 51
278.3954163333821
1001
AcDbBlockRepETag
1070
     1
1071
      402
1005
101D
  0
ARC
  5
101E
330
8AB
100
AcDbEntity
  8
Layer_0
  6
Continuous
100
AcDbCircle
 10
262.1409036705951
 20
23.15629167344969
 30
0.0
 40
1.630371608232648
100
AcDbArc
 50
260.879967157394
 51
266.4473966212115
1001
AcDbBlockRepETag
1070
     1
1071
      403
1005
101E
  0
ARC
  5
101F
330
8AB
100
AcDbEntity
  8
Layer_0
  6
Continuous
100
AcDbCircle
 10
262.0900466154001
 20
22.83228167845596
 30
0.0
 40
1.302397092638311
100
AcDbArc
 50
255.715539000415
 51
260.829705255284
1001
AcDbBlockRepETag
1070
     1
1071
      404
1005
101F
  0
ARC
  5
1020
330
8AB
100
AcDbEntity
  8
Layer_0
  6
Continuous
100
AcDbCircle
 10
262.0144358078064
 20
22.54101381306567
 30
0.0
 40
1.001479512740248
100
AcDbArc
 50
245.1998502916539
 51
255.7960235384269
1001
AcDbBlockRepETag
1070
     1
1071
      405
1005
1020
  0
ARC
  5
1021
330
8AB
100
AcDbEntity
  8
Layer_0
  6
Continuous
100
AcDbCircle
 10
261.9634233658298
 20
22.42877524938888
 30
0.0
 40
0.8781949379192798
100
AcDbArc
 50
229.3551486653954
 51
245.1495432669324
1001
AcDbBlockRepETag
1070
     1
1071
      406
1005
1021
  0
ARC
  5
1022
330
8AB
100
AcDbEntity
  8
Layer_0
  6
Continuous
100
AcDbCircle
 10
261.8993834445618
 20
22.35234342751153
 30
0.0
 40
0.778488739271479
100
AcDbArc
 50
212.5072618690957
 51
229.2672544012333
1001
AcDbBlockRepETag
1070
     1
1071
      407
1005
1022
  0
ARC
  5
1023
330
8AB
100
AcDbEntity
  8
Layer_0
  6
Continuous
100
AcDbCircle
 10
261.854559083903
 20
22.32053691596275
 30
0.0
 40
0.7235994497613639
100
AcDbArc
 50
192.432138851714
 51
212.2907573484137
1001
AcDbBlockRepETag
1070
     1
1071
      408
1005
1023
  0
ARC
  5
1024
330
8AB
100
AcDbEntity
  8
Layer_0
  6
Continuous
100
AcDbCircle
 10
261.9533356515812
 20
22.3434942868472
 30
0.0
 40
0.8250030143259058
100
AcDbArc
 50
161.0345979626794
 51
192.512292228195
1001
AcDbBlockRepETag
1070
     1
1071
      409
1005
1024
  0
ARC
  5
1025
330
8AB
100
AcDbEntity
  8
Layer_0
  6
Continuous
100
AcDbCircle
 10
261.8015845523855
 20
22.39494231006404
 30
0.0
 40
0.6647695944522967
100
AcDbArc
 50
148.7498375052772
 51
160.9774110030103
1001
AcDbBlockRepETag
1070
     1
1071
      410
1005
1025
  0
ARC
  5
1026
330
8AB
100
AcDbEntity
  8
Layer_0
  6
Continuous
100
AcDbCircle
 10
261.7600225854358
 20
22.41635538699382
 30
0.0
 40
0.6181378236567902
100
AcDbArc
 50
132.2146422779004
 51
148.4481200720493
1001
AcDbBlockRepETag
1070
     1
1071
      411
1005
1026
  0
ARC
  5
1027
330
8AB
100
AcDbEntity
  8
Layer_0
  6
Continuous
100
AcDbCircle
 10
261.8440613040234
 20
22.32622398606622
 30
0.0
 40
0.7413604583886383
100
AcDbArc
 50
124.954634098168
 51
132.3446090016165
1001
AcDbBlockRepETag
1070
     1
1071
      412
1005
1027
  0
ARC
  5
1028
330
8AB
100
AcDbEntity
  8
Layer_0
  6
Continuous
100
AcDbCircle
 10
261.9495740517022
 20
22.17550978334873
 30
0.0
 40
0.9253378949706208
100
AcDbArc
 50
118.4899208131812
 51
124.9627168582039
1001
AcDbBlockRepETag
1070
     1
1071
      413
1005
1028
  0
ARC
  5
1029
330
8AB
100
AcDbEntity
  8
Layer_0
  6
Continuous
100
AcDbCircle
 10
262.0887898483527
 20
21.92015164547911
 30
0.0
 40
1.216179065442215
100
AcDbArc
 50
113.0547737515005
 51
118.5158327497822
1001
AcDbBlockRepETag
1070
     1
1071
      414
1005
1029
  0
ARC
  5
102A
330
8AB
100
AcDbEntity
  8
Layer_0
  6
Continuous
100
AcDbCircle
 10
262.2745842389545
 20
21.48789059770604
 30
0.0
 40
1.686675761660863
100
AcDbArc
 50
110.2438558002386
 51
113.111741075945
1001
AcDbBlockRepETag
1070
     1
1071
      415
1005
102A
  0
ARC
  5
102B
330
8AB
100
AcDbEntity
  8
Layer_0
  6
Continuous
100
AcDbCircle
 10
262.5506070668885
 20
20.73518773384353
 30
0.0
 40
2.488391875960763
100
AcDbArc
 50
107.0916582306199
 51
110.2098912625504
1001
AcDbBlockRepETag
1070
     1
1071
      416
1005
102B
  0
ARC
  5
102C
330
8AB
100
AcDbEntity
  8
Layer_0
  6
Continuous
100
AcDbCircle
 10
262.9998461509301
 20
19.27744811809964
 30
0.0
 40
4.01378361636809
100
AcDbArc
 50
104.3905419737352
 51
107.1054680804506
1001
AcDbBlockRepETag
1070
     1
1071
      417
1005
102C
  0
ARC
  5
102D
330
8AB
100
AcDbEntity
  8
Layer_0
  6
Continuous
100
AcDbCircle
 10
263.8010681854139
 20
16.17345853565848
 30
0.0
 40
7.219512248475167
100
AcDbArc
 50
102.5408295186627
 51
104.4274338497769
1001
AcDbBlockRepETag
1070
     1
1071
      418
1005
102D
  0
ARC
  5
102E
330
8AB
100
AcDbEntity
  8
Layer_0
  6
Continuous
100
AcDbCircle
 10
267.3954980265417
 20
0.1051003512004627
 30
0.0
 40
23.68498954959797
100
AcDbArc
 50
102.0636747589112
 51
102.5884001985985
1001
AcDbBlockRepETag
1070
     1
1071
      419
1005
102E
  0
ARC
  5
102F
330
8AB
100
AcDbEntity
  8
Layer_0
  6
Continuous
100
AcDbCircle
 10
260.4555955196645
 20
32.59014851077723
 30
0.0
 40
9.533087136078306
100
AcDbArc
 50
282.0475152438933
 51
284.0630730681183
1001
AcDbBlockRepETag
1070
     1
1071
      420
1005
102F
  0
ARC
  5
1030
330
8AB
100
AcDbEntity
  8
Layer_0
  6
Continuous
100
AcDbCircle
 10
262.0310601458596
 20
26.27146587353457
 30
0.0
 40
3.020969305284788
100
AcDbArc
 50
284.1982981456117
 51
292.2605299424382
1001
AcDbBlockRepETag
1070
     1
1071
      421
1005
1030
  0
LINE
  5
1031
330
8AB
100
AcDbEntity
  8
Layer_0
  6
Continuous
100
AcDbLine
 10
263.1754598373991
 20
23.47564669313726
 30
0.0
 11
263.174975378485
 21
23.54093962758941
 31
0.0
1001
AcDbBlockRepETag
1070
     1
1071
      422
1005
1031
  0
ARC
  5
1032
330
8AB
100
AcDbEntity
  8
Layer_0
  6
Continuous
100
AcDbCircle
 10
262.8016313690046
 20
23.5308782264832
 30
0.0
 40
0.3734795592895509
100
AcDbArc
 50
1.543713857371956
 51
18.39458166119048
1001
AcDbBlockRepETag
1070
     1
1071
      423
1005
1032
  0
ARC
  5
1033
330
8AB
100
AcDbEntity
  8
Layer_0
  6
Continuous
100
AcDbCircle
 10
262.9404988692638
 20
23.57244034102996
 30
0.0
 40
0.2286340671637448
100
AcDbArc
 50
19.49287932503042
 51
61.9090907076706
1001
AcDbBlockRepETag
1070
     1
1071
      424
1005
1033
  0
ARC
  5
1034
330
8AB
100
AcDbEntity
  8
Layer_0
  6
Continuous
100
AcDbCircle
 10
262.8768059660861
 20
23.46104756624254
 30
0.0
 40
0.3569157264403123
100
AcDbArc
 50
61.3089772560565
 51
76.76527636617738
1001
AcDbBlockRepETag
1070
     1
1071
      425
1005
1034
  0
ARC
  5
1035
330
8AB
100
AcDbEntity
  8
Layer_0
  6
Continuous
100
AcDbCircle
 10
262.798904814683
 20
23.14406977802355
 30
0.0
 40
0.6833172374927213
100
AcDbArc
 50
76.49167822307806
 51
86.60845447892871
1001
AcDbBlockRepETag
1070
     1
1071
      426
1005
1035
  0
ARC
  5
1036
330
8AB
100
AcDbEntity
  8
Layer_0
  6
Continuous
100
AcDbCircle
 10
262.7685054864819
 20
22.8188330176057
 30
0.0
 40
1.009843829503741
100
AcDbArc
 50
85.97835284945892
 51
100.219803983258
1001
AcDbBlockRepETag
1070
     1
1071
      427
1005
1036
  0
ARC
  5
1037
330
8AB
100
AcDbEntity
  8
Layer_0
  6
Continuous
100
AcDbCircle
 10
262.6912905473403
 20
23.25755558804315
 30
0.0
 40
0.5643850616126899
100
AcDbArc
 50
100.407659058997
 51
117.2713161770833
1001
AcDbBlockRepETag
1070
     1
1071
      428
1005
1037
  0
ARC
  5
1038
330
8AB
100
AcDbEntity
  8
Layer_0
  6
Continuous
100
AcDbCircle
 10
262.6093515247908
 20
23.42319009311086
 30
0.0
 40
0.3796288922936129
100
AcDbArc
 50
117.7336467565
 51
163.3371301951821
1001
AcDbBlockRepETag
1070
     1
1071
      429
1005
1038
  0
ARC
  5
1039
330
8AB
100
AcDbEntity
  8
Layer_0
  6
Continuous
100
AcDbCircle
 10
310.7510145923523
 20
6.672067034757104
 30
0.0
 40
51.352
100
AcDbArc
 50
160.8330567261706
 51
160.8727115995153
1001
AcDbBlockRepETag
1070
     1
1071
      430
1005
1039
  0
LINE
  5
103A
330
8AB
100
AcDbEntity
  8
Layer_0
  6
Continuous
100
AcDbLine
 10
263.1754598373991
 20
22.92789202647066
 30
0.0
 11
263.0843308133246
 21
22.89553094180326
 31
0.0
1001
AcDbBlockRepETag
1070
     1
1071
      431
1005
103A
  0
ARC
  5
103B
330
8AB
100
AcDbEntity
  8
Layer_0
  6
Continuous
100
AcDbCircle
 10
261.6851255817599
 20
27.02324214483622
 30
0.0
 40
4.358414282245536
100
AcDbArc
 50
285.5268232671257
 51
288.7255524746798
1001
AcDbBlockRepETag
1070
     1
1071
      432
1005
103B
  0
ARC
  5
103C
330
8AB
100
AcDbEntity
  8
Layer_0
  6
Continuous
100
AcDbCircle
 10
266.6361973782362
 20
9.337685655335803
 30
0.0
 40
14.00710849337317
100
AcDbArc
 50
105.6746790619163
 51
106.4662754296841
1001
AcDbBlockRepETag
1070
     1
1071
      433
1005
103C
  0
ARC
  5
103D
330
8AB
100
AcDbEntity
  8
Layer_0
  6
Continuous
100
AcDbCircle
 10
263.5554097616912
 20
19.78701718436036
 30
0.0
 40
3.113094871245772
100
AcDbArc
 50
106.6031749557203
 51
109.3059804857143
1001
AcDbBlockRepETag
1070
     1
1071
      434
1005
103D
  0
ARC
  5
103E
330
8AB
100
AcDbEntity
  8
Layer_0
  6
Continuous
100
AcDbCircle
 10
262.9871505892743
 20
21.41816347512849
 30
0.0
 40
1.385803106924794
100
AcDbArc
 50
109.4289430367348
 51
113.0704287250157
1001
AcDbBlockRepETag
1070
     1
1071
      435
1005
103E
  0
ARC
  5
103F
330
8AB
100
AcDbEntity
  8
Layer_0
  6
Continuous
100
AcDbCircle
 10
262.7272376078963
 20
22.02931599769897
 30
0.0
 40
0.7216781843514842
100
AcDbArc
 50
113.0991295036873
 51
120.4125082804282
1001
AcDbBlockRepETag
1070
     1
1071
      436
1005
103F
  0
ARC
  5
1040
330
8AB
100
AcDbEntity
  8
Layer_0
  6
Continuous
100
AcDbCircle
 10
262.5780002169026
 20
22.28561629510557
 30
0.0
 40
0.4250980133573591
100
AcDbArc
 50
120.5529600878936
 51
130.6640317614104
1001
AcDbBlockRepETag
1070
     1
1071
      437
1005
1040
  0
ARC
  5
1041
330
8AB
100
AcDbEntity
  8
Layer_0
  6
Continuous
100
AcDbCircle
 10
262.4771755091913
 20
22.40310432286571
 30
0.0
 40
0.2702786062748879
100
AcDbArc
 50
130.6805440151816
 51
210.7652860147917
1001
AcDbBlockRepETag
1070
     1
1071
      438
1005
1041
  0
ARC
  5
1042
330
8AB
100
AcDbEntity
  8
Layer_0
  6
Continuous
100
AcDbCircle
 10
262.4662781133711
 20
22.40130808034235
 30
0.0
 40
0.2600272266452887
100
AcDbArc
 50
211.653490397034
 51
239.8394601076196
1001
AcDbBlockRepETag
1070
     1
1071
      439
1005
1042
  0
ARC
  5
1043
330
8AB
100
AcDbEntity
  8
Layer_0
  6
Continuous
100
AcDbCircle
 10
262.5048003392265
 20
22.46413653942704
 30
0.0
 40
0.333709086660193
100
AcDbArc
 50
239.5406147801892
 51
255.4946375426349
1001
AcDbBlockRepETag
1070
     1
1071
      440
1005
1043
  0
ARC
  5
1044
330
8AB
100
AcDbEntity
  8
Layer_0
  6
Continuous
100
AcDbCircle
 10
262.5458232130281
 20
22.61800902157199
 30
0.0
 40
0.4929531847700531
100
AcDbArc
 50
255.3581022208975
 51
267.7007060417849
1001
AcDbBlockRepETag
1070
     1
1071
      441
1005
1044
  0
ARC
  5
1045
330
8AB
100
AcDbEntity
  8
Layer_0
  6
Continuous
100
AcDbCircle
 10
262.554507223022
 20
22.79662525470701
 30
0.0
 40
0.6717757094590966
100
AcDbArc
 50
267.571830283457
 51
310.592515880677
1001
AcDbBlockRepETag
1070
     1
1071
      442
1005
1045
  0
ARC
  5
1046
330
8AB
100
AcDbEntity
  8
Layer_0
  6
Continuous
100
AcDbCircle
 10
262.6418533609581
 20
22.68839061339531
 30
0.0
 40
0.532768867327666
100
AcDbArc
 50
311.0333125012413
 51
357.3831604722763
1001
AcDbBlockRepETag
1070
     1
1071
      443
1005
1046
  0
ARC
  5
1047
330
8AB
100
AcDbEntity
  8
Layer_0
  6
Continuous
100
AcDbCircle
 10
261.9071901043239
 20
22.72853089863042
 30
0.0
 40
1.268515624073452
100
AcDbArc
 50
357.0870310897669
 51
1.128153124583109
1001
AcDbBlockRepETag
1070
     1
1071
      444
1005
1047
  0
LINE
  5
1048
330
8AB
100
AcDbEntity
  8
Layer_0
  6
Continuous
100
AcDbLine
 10
263.1754598373991
 20
22.75350634024835
 30
0.0
 11
263.1754598373991
 21
22.92789202647066
 31
0.0
1001
AcDbBlockRepETag
1070
     1
1071
      445
1005
1048
  0
LINE
  5
1049
330
8AB
100
AcDbEntity
  8
Layer_0
  6
Continuous
100
AcDbLine
 10
266.1735580292441
 20
25.5026550219568
 30
0.0
 11
266.1735580292441
 21
24.42426302195679
 31
0.0
1001
AcDbBlockRepETag
1070
     1
1071
      446
1005
1049
  0
LINE
  5
104A
330
8AB
100
AcDbEntity
  8
Layer_0
  6
Continuous
100
AcDbLine
 10
266.1735580292441
 20
24.42426302195679
 30
0.0
 11
266.7726646959108
 21
24.42426302195679
 31
0.0
1001
AcDbBlockRepETag
1070
     1
1071
      447
1005
104A
  0
LINE
  5
104B
330
8AB
100
AcDbEntity
  8
Layer_0
  6
Continuous
100
AcDbLine
 10
266.7726646959108
 20
24.42426302195679
 30
0.0
 11
266.7726646959108
 21
23.62545413306794
 31
0.0
1001
AcDbBlockRepETag
1070
     1
1071
      448
1005
104B
  0
LINE
  5
104C
330
8AB
100
AcDbEntity
  8
Layer_0
  6
Continuous
100
AcDbLine
 10
266.7726646959108
 20
23.62545413306794
 30
0.0
 11
266.1735580292441
 21
23.62545413306794
 31
0.0
1001
AcDbBlockRepETag
1070
     1
1071
      449
1005
104C
  0
LINE
  5
104D
330
8AB
100
AcDbEntity
  8
Layer_0
  6
Continuous
100
AcDbLine
 10
266.1735580292441
 20
23.62545413306794
 30
0.0
 11
266.1735580292441
 21
22.62078648773456
 31
0.0
1001
AcDbBlockRepETag
1070
     1
1071
      450
1005
104D
  0
LINE
  5
104E
330
8AB
100
AcDbEntity
  8
Layer_0
  6
Continuous
100
AcDbLine
 10
266.1735580292441
 20
22.62078648773456
 30
0.0
 11
266.1744994369312
 21
22.54210546305069
 31
0.0
1001
AcDbBlockRepETag
1070
     1
1071
      451
1005
104E
  0
ARC
  5
104F
330
8AB
100
AcDbEntity
  8
Layer_0
  6
Continuous
100
AcDbCircle
 10
266.6212738300601
 20
22.55758712567854
 30
0.0
 40
0.4470425485716046
100
AcDbArc
 50
181.9846239116006
 51
197.3186033255466
1001
AcDbBlockRepETag
1070
     1
1071
      452
1005
104F
  0
ARC
  5
1050
330
8AB
100
AcDbEntity
  8
Layer_0
  6
Continuous
100
AcDbCircle
 10
266.3798462256248
 20
22.48512281894966
 30
0.0
 40
0.1950072899887085
100
AcDbArc
 50
198.1090641626255
 51
228.8926020974835
1001
AcDbBlockRepETag
1070
     1
1071
      453
1005
1050
  0
ARC
  5
1051
330
8AB
100
AcDbEntity
  8
Layer_0
  6
Continuous
100
AcDbCircle
 10
266.3595043844834
 20
22.47203550915401
 30
0.0
 40
0.1719035811440958
100
AcDbArc
 50
231.1338263120939
 51
257.3103536426086
1001
AcDbBlockRepETag
1070
     1
1071
      454
1005
1051
  0
ARC
  5
1052
330
8AB
100
AcDbEntity
  8
Layer_0
  6
Continuous
100
AcDbCircle
 10
266.4092519928033
 20
22.675486900632
 30
0.0
 40
0.3813329120185558
100
AcDbArc
 50
256.7333283132965
 51
272.5750250646944
1001
AcDbBlockRepETag
1070
     1
1071
      455
1005
1052
  0
ARC
  5
1053
330
8AB
100
AcDbEntity
  8
Layer_0
  6
Continuous
100
AcDbCircle
 10
266.3781387419819
 20
23.27389545762674
 30
0.0
 40
0.9805440481459385
100
AcDbArc
 50
272.8202565782555
 51
291.1772651577663
1001
AcDbBlockRepETag
1070
     1
1071
      456
1005
1053
  0
LINE
  5
1054
330
8AB
100
AcDbEntity
  8
Layer_0
  6
Continuous
100
AcDbLine
 10
266.7323647874664
 20
22.35957027529014
 30
0.0
 11
266.8126051403553
 21
21.60827910373462
 31
0.0
1001
AcDbBlockRepETag
1070
     1
1071
      457
1005
1054
  0
LINE
  5
1055
330
8AB
100
AcDbEntity
  8
Layer_0
  6
Continuous
100
AcDbLine
 10
266.8126051403553
 20
21.60827910373462
 30
0.0
 11
266.6794084332876
 21
21.57963018500038
 31
0.0
1001
AcDbBlockRepETag
1070
     1
1071
      458
1005
1055
  0
ARC
  5
1056
330
8AB
100
AcDbEntity
  8
Layer_0
  6
Continuous
100
AcDbCircle
 10
266.1289843035979
 20
24.36404686427966
 30
0.0
 40
2.838299308810367
100
AcDbArc
 50
270.5698447531062
 51
281.1820746589827
1001
AcDbBlockRepETag
1070
     1
1071
      459
1005
1056
  0
ARC
  5
1057
330
8AB
100
AcDbEntity
  8
Layer_0
  6
Continuous
100
AcDbCircle
 10
266.1019421702774
 20
24.41104736573198
 30
0.0
 40
2.885688788541065
100
AcDbArc
 50
265.2055494052187
 51
271.0974700660256
1001
AcDbBlockRepETag
1070
     1
1071
      460
1005
1057
  0
ARC
  5
1058
330
8AB
100
AcDbEntity
  8
Layer_0
  6
Continuous
100
AcDbCircle
 10
266.0012667147885
 20
23.15523530393921
 30
0.0
 40
1.625862895020013
100
AcDbArc
 50
259.2447743367201
 51
265.0420609224873
1001
AcDbBlockRepETag
1070
     1
1071
      461
1005
1058
  0
ARC
  5
1059
330
8AB
100
AcDbEntity
  8
Layer_0
  6
Continuous
100
AcDbCircle
 10
265.8765882312887
 20
22.48843732716773
 30
0.0
 40
0.9475135950862688
100
AcDbArc
 50
248.6847773040778
 51
259.127143129848
1001
AcDbBlockRepETag
1070
     1
1071
      462
1005
1059
  0
ARC
  5
105A
330
8AB
100
AcDbEntity
  8
Layer_0
  6
Continuous
100
AcDbCircle
 10
265.7556306194922
 20
22.17774251215587
 30
0.0
 40
0.6141040682118412
100
AcDbArc
 50
211.8976986664388
 51
248.6611061811752
1001
AcDbBlockRepETag
1070
     1
1071
      463
1005
105A
  0
ARC
  5
105B
330
8AB
100
AcDbEntity
  8
Layer_0
  6
Continuous
100
AcDbCircle
 10
265.9590811752334
 20
22.30766522561602
 30
0.0
 40
0.8554884399589417
100
AcDbArc
 50
195.9742972621575
 51
212.0851821427453
1001
AcDbBlockRepETag
1070
     1
1071
      464
1005
105B
  0
ARC
  5
105C
330
8AB
100
AcDbEntity
  8
Layer_0
  6
Continuous
100
AcDbCircle
 10
266.2610262066646
 20
22.40042855474201
 30
0.0
 40
1.171318775767639
100
AcDbArc
 50
185.5626767895022
 51
196.2719099741675
1001
AcDbBlockRepETag
1070
     1
1071
      465
1005
105C
  0
ARC
  5
105D
330
8AB
100
AcDbEntity
  8
Layer_0
  6
Continuous
100
AcDbCircle
 10
267.8246661696578
 20
22.54928544214181
 30
0.0
 40
2.742026681562624
100
AcDbArc
 50
178.3660034415499
 51
185.4913212028051
1001
AcDbBlockRepETag
1070
     1
1071
      466
1005
105D
  0
LINE
  5
105E
330
8AB
100
AcDbEntity
  8
Layer_0
  6
Continuous
100
AcDbLine
 10
265.0837544736887
 20
22.6274736592901
 30
0.0
 11
265.0837544736887
 21
23.62545413306794
 31
0.0
1001
AcDbBlockRepETag
1070
     1
1071
      467
1005
105E
  0
LINE
  5
105F
330
8AB
100
AcDbEntity
  8
Layer_0
  6
Continuous
100
AcDbLine
 10
265.0837544736887
 20
23.62545413306794
 30
0.0
 11
264.684350029244
 21
23.62545413306794
 31
0.0
1001
AcDbBlockRepETag
1070
     1
1071
      468
1005
105F
  0
LINE
  5
1060
330
8AB
100
AcDbEntity
  8
Layer_0
  6
Continuous
100
AcDbLine
 10
264.684350029244
 20
23.62545413306794
 30
0.0
 11
264.684350029244
 21
24.42426302195679
 31
0.0
1001
AcDbBlockRepETag
1070
     1
1071
      469
1005
1060
  0
LINE
  5
1061
330
8AB
100
AcDbEntity
  8
Layer_0
  6
Continuous
100
AcDbLine
 10
264.684350029244
 20
24.42426302195679
 30
0.0
 11
265.0837544736887
 21
24.42426302195679
 31
0.0
1001
AcDbBlockRepETag
1070
     1
1071
      470
1005
1061
  0
LINE
  5
1062
330
8AB
100
AcDbEntity
  8
Layer_0
  6
Continuous
100
AcDbLine
 10
265.0837544736887
 20
24.42426302195679
 30
0.0
 11
265.0837544736887
 21
24.94473265929014
 31
0.0
1001
AcDbBlockRepETag
1070
     1
1071
      471
1005
1062
  0
LINE
  5
1063
330
8AB
100
AcDbEntity
  8
Layer_0
  6
Continuous
100
AcDbLine
 10
265.0837544736887
 20
24.94473265929014
 30
0.0
 11
266.1735580292441
 21
25.5026550219568
 31
0.0
1001
AcDbBlockRepETag
1070
     1
1071
      472
1005
1063
  0
LINE
  5
1064
330
8AB
100
AcDbEntity
  8
Layer_0
  6
Continuous
100
AcDbLine
 10
267.4236199880454
 20
25.44522791052418
 30
0.0
 11
268.513423543601
 21
25.44522791052418
 31
0.0
1001
AcDbBlockRepETag
1070
     1
1071
      473
1005
1064
  0
LINE
  5
1065
330
8AB
100
AcDbEntity
  8
Layer_0
  6
Continuous
100
AcDbLine
 10
268.513423543601
 20
25.44522791052418
 30
0.0
 11
268.513423543601
 21
24.70347679941312
 31
0.0
1001
AcDbBlockRepETag
1070
     1
1071
      474
1005
1065
  0
LINE
  5
1066
330
8AB
100
AcDbEntity
  8
Layer_0
  6
Continuous
100
AcDbLine
 10
268.513423543601
 20
24.70347679941312
 30
0.0
 11
267.4236199880454
 21
24.70347679941312
 31
0.0
1001
AcDbBlockRepETag
1070
     1
1071
      475
1005
1066
  0
LINE
  5
1067
330
8AB
100
AcDbEntity
  8
Layer_0
  6
Continuous
100
AcDbLine
 10
267.4236199880454
 20
24.70347679941312
 30
0.0
 11
267.4236199880454
 21
25.44522791052418
 31
0.0
1001
AcDbBlockRepETag
1070
     1
1071
      476
1005
1067
  0
LINE
  5
1068
330
8AB
100
AcDbEntity
  8
Layer_0
  6
Continuous
100
AcDbLine
 10
267.4236199880454
 20
24.36683591052418
 30
0.0
 11
268.513423543601
 21
24.36683591052418
 31
0.0
1001
AcDbBlockRepETag
1070
     1
1071
      477
1005
1068
  0
LINE
  5
1069
330
8AB
100
AcDbEntity
  8
Layer_0
  6
Continuous
100
AcDbLine
 10
268.513423543601
 20
24.36683591052418
 30
0.0
 11
268.513423543601
 21
21.5253585771909
 31
0.0
1001
AcDbBlockRepETag
1070
     1
1071
      478
1005
1069
  0
LINE
  5
106A
330
8AB
100
AcDbEntity
  8
Layer_0
  6
Continuous
100
AcDbLine
 10
268.513423543601
 20
21.5253585771909
 30
0.0
 11
267.4236199880454
 21
21.5253585771909
 31
0.0
1001
AcDbBlockRepETag
1070
     1
1071
      479
1005
106A
  0
LINE
  5
106B
330
8AB
100
AcDbEntity
  8
Layer_0
  6
Continuous
100
AcDbLine
 10
267.4236199880454
 20
21.5253585771909
 30
0.0
 11
267.4236199880454
 21
24.36683591052418
 31
0.0
1001
AcDbBlockRepETag
1070
     1
1071
      480
1005
106B
  0
LINE
  5
106C
330
8AB
100
AcDbEntity
  8
Layer_0
  6
Continuous
100
AcDbLine
 10
269.1259036103313
 20
22.96724740966386
 30
0.0
 11
269.1260498503668
 21
23.11115891240536
 31
0.0
1001
AcDbBlockRepETag
1070
     1
1071
      481
1005
106C
  0
ARC
  5
106D
330
8AB
100
AcDbEntity
  8
Layer_0
  6
Continuous
100
AcDbCircle
 10
270.3450346458987
 20
23.10268408713171
 30
0.0
 40
1.219014255208455
100
AcDbArc
 50
172.9400003992189
 51
179.6016653375392
1001
AcDbBlockRepETag
1070
     1
1071
      482
1005
106D
  0
ARC
  5
106E
330
8AB
100
AcDbEntity
  8
Layer_0
  6
Continuous
100
AcDbCircle
 10
270.1533154190922
 20
23.12219364063356
 30
0.0
 40
1.0263593559843
100
AcDbArc
 50
151.5055100004691
 51
172.7054081293678
1001
AcDbBlockRepETag
1070
     1
1071
      483
1005
106E
  0
ARC
  5
106F
330
8AB
100
AcDbEntity
  8
Layer_0
  6
Continuous
100
AcDbCircle
 10
270.2883299498883
 20
23.05184620525801
 30
0.0
 40
1.178582418056822
100
AcDbArc
 50
145.2137102365815
 51
151.6312358853239
1001
AcDbBlockRepETag
1070
     1
1071
      484
1005
106F
  0
ARC
  5
1070
330
8AB
100
AcDbEntity
  8
Layer_0
  6
Continuous
100
AcDbCircle
 10
270.4859524070025
 20
22.91483620254451
 30
0.0
 40
1.419053487497617
100
AcDbArc
 50
137.3311386846864
 51
145.2226987603811
1001
AcDbBlockRepETag
1070
     1
1071
      485
1005
1070
  0
ARC
  5
1071
330
8AB
100
AcDbEntity
  8
Layer_0
  6
Continuous
100
AcDbCircle
 10
270.6500349543087
 20
22.76102964154347
 30
0.0
 40
1.643945641061578
100
AcDbArc
 50
108.6718393714939
 51
137.2655201889719
1001
AcDbBlockRepETag
1070
     1
1071
      486
1005
1071
  0
ARC
  5
1072
330
8AB
100
AcDbEntity
  8
Layer_0
  6
Continuous
100
AcDbCircle
 10
270.693169180111
 20
22.63860652405731
 30
0.0
 40
1.773735450592888
100
AcDbArc
 50
104.4371398018017
 51
108.7258014194255
1001
AcDbBlockRepETag
1070
     1
1071
      487
1005
1072
  0
ARC
  5
1073
330
8AB
100
AcDbEntity
  8
Layer_0
  6
Continuous
100
AcDbCircle
 10
270.7538246521594
 20
22.40032450669264
 30
0.0
 40
2.01961553188581
100
AcDbArc
 50
98.59619757283772
 51
104.4181933713802
1001
AcDbBlockRepETag
1070
     1
1071
      488
1005
1073
  0
ARC
  5
1074
330
8AB
100
AcDbEntity
  8
Layer_0
  6
Continuous
100
AcDbCircle
 10
270.7897690746233
 20
22.16727873740888
 30
0.0
 40
2.255416049394943
100
AcDbArc
 50
82.60827607383445
 51
98.61416675715688
1001
AcDbBlockRepETag
1070
     1
1071
      489
1005
1074
  0
ARC
  5
1075
330
8AB
100
AcDbEntity
  8
Layer_0
  6
Continuous
100
AcDbCircle
 10
270.8270432267466
 20
22.47478449815242
 30
0.0
 40
1.945672062302688
100
AcDbArc
 50
76.52867604604153
 51
82.53180170968986
1001
AcDbBlockRepETag
1070
     1
1071
      490
1005
1075
  0
ARC
  5
1076
330
8AB
100
AcDbEntity
  8
Layer_0
  6
Continuous
100
AcDbCircle
 10
270.8888804778403
 20
22.73804487666689
 30
0.0
 40
1.675249763229235
100
AcDbArc
 50
71.98715224693909
 51
76.48787768550815
1001
AcDbBlockRepETag
1070
     1
1071
      491
1005
1076
  0
ARC
  5
1077
330
8AB
100
AcDbEntity
  8
Layer_0
  6
Continuous
100
AcDbCircle
 10
270.9696620503853
 20
22.98152681630359
 30
0.0
 40
1.41872227488509
100
AcDbArc
 50
61.92296652968074
 51
72.04895258545526
1001
AcDbBlockRepETag
1070
     1
1071
      492
1005
1077
  0
ARC
  5
1078
330
8AB
100
AcDbEntity
  8
Layer_0
  6
Continuous
100
AcDbCircle
 10
271.0241936173138
 20
23.08569651644223
 30
0.0
 40
1.301146313134754
100
AcDbArc
 50
33.83096086917628
 51
61.8827064865334
1001
AcDbBlockRepETag
1070
     1
1071
      493
1005
1078
  0
ARC
  5
1079
330
8AB
100
AcDbEntity
  8
Layer_0
  6
Continuous
100
AcDbCircle
 10
270.938602005381
 20
23.0273498972258
 30
0.0
 40
1.404730273662166
100
AcDbArc
 50
22.34236851969374
 51
33.86419972740684
1001
AcDbBlockRepETag
1070
     1
1071
      494
1005
1079
  0
ARC
  5
107A
330
8AB
100
AcDbEntity
  8
Layer_0
  6
Continuous
100
AcDbCircle
 10
270.7982773088729
 20
22.96987701515468
 30
0.0
 40
1.556368401526523
100
AcDbArc
 50
5.532096219894168
 51
22.33556779178066
1001
AcDbBlockRepETag
1070
     1
1071
      495
1005
107A
  0
ARC
  5
107B
330
8AB
100
AcDbEntity
  8
Layer_0
  6
Continuous
100
AcDbCircle
 10
270.7816145318259
 20
22.96362090504226
 30
0.0
 40
1.573563463167109
100
AcDbArc
 50
351.1319269182274
 51
5.700340232080407
1001
AcDbBlockRepETag
1070
     1
1071
      496
1005
107B
  0
ARC
  5
107C
330
8AB
100
AcDbEntity
  8
Layer_0
  6
Continuous
100
AcDbCircle
 10
270.9188160882463
 20
22.94315826791081
 30
0.0
 40
1.434847811309403
100
AcDbArc
 50
339.7936604357473
 51
351.0946729205635
1001
AcDbBlockRepETag
1070
     1
1071
      497
1005
107C
  0
ARC
  5
107D
330
8AB
100
AcDbEntity
  8
Layer_0
  6
Continuous
100
AcDbCircle
 10
271.0127075081639
 20
22.91236578226312
 30
0.0
 40
1.33610384018856
100
AcDbArc
 50
313.0415119186029
 51
339.6421585154404
1001
AcDbBlockRepETag
1070
     1
1071
      498
1005
107D
  0
ARC
  5
107E
330
8AB
100
AcDbEntity
  8
Layer_0
  6
Continuous
100
AcDbCircle
 10
270.9551698528896
 20
22.97168392759852
 30
0.0
 40
1.41872899179073
100
AcDbArc
 50
296.5999395913854
 51
313.1047406259849
1001
AcDbBlockRepETag
1070
     1
1071
      499
1005
107E
  0
ARC
  5
107F
330
8AB
100
AcDbEntity
  8
Layer_0
  6
Continuous
100
AcDbCircle
 10
270.9065400049821
 20
23.06386736274204
 30
0.0
 40
1.522931253674253
100
AcDbArc
 50
287.4894181851971
 51
296.6829610613853
1001
AcDbBlockRepETag
1070
     1
1071
      500
1005
107F
  0
ARC
  5
1080
330
8AB
100
AcDbEntity
  8
Layer_0
  6
Continuous
100
AcDbCircle
 10
270.8393255629187
 20
23.27512844421165
 30
0.0
 40
1.74462629958709
100
AcDbArc
 50
281.2796566651382
 51
287.5096833841389
1001
AcDbBlockRepETag
1070
     1
1071
      501
1005
1080
  0
ARC
  5
1081
330
8AB
100
AcDbEntity
  8
Layer_0
  6
Continuous
100
AcDbCircle
 10
270.7924992669998
 20
23.50847209773633
 30
0.0
 40
1.982621874147124
100
AcDbArc
 50
273.7909316464815
 51
281.2877560498555
1001
AcDbBlockRepETag
1070
     1
1071
      502
1005
1081
  0
ARC
  5
1082
330
8AB
100
AcDbEntity
  8
Layer_0
  6
Continuous
100
AcDbCircle
 10
270.7800100248495
 20
23.66174103781168
 30
0.0
 40
2.136382460620867
100
AcDbArc
 50
259.7783585614767
 51
273.8533768904413
1001
AcDbBlockRepETag
1070
     1
1071
      503
1005
1082
  0
ARC
  5
1083
330
8AB
100
AcDbEntity
  8
Layer_0
  6
Continuous
100
AcDbCircle
 10
270.7414441008684
 20
23.44584630254906
 30
0.0
 40
1.917070526811943
100
AcDbArc
 50
252.1152360717929
 51
259.7676563476973
1001
AcDbBlockRepETag
1070
     1
1071
      504
1005
1083
  0
ARC
  5
1084
330
8AB
100
AcDbEntity
  8
Layer_0
  6
Continuous
100
AcDbCircle
 10
270.7077995203401
 20
23.32825708537882
 30
0.0
 40
1.794835976147765
100
AcDbArc
 50
231.2147684927027
 51
251.9845665353193
1001
AcDbBlockRepETag
1070
     1
1071
      505
1005
1084
  0
ARC
  5
1085
330
8AB
100
AcDbEntity
  8
Layer_0
  6
Continuous
100
AcDbCircle
 10
270.5816097712645
 20
23.16865141206199
 30
0.0
 40
1.591378632432876
100
AcDbArc
 50
223.5828829833021
 51
231.156708007809
1001
AcDbBlockRepETag
1070
     1
1071
      506
1005
1085
  0
ARC
  5
1086
330
8AB
100
AcDbEntity
  8
Layer_0
  6
Continuous
100
AcDbCircle
 10
270.3992289335984
 20
22.99377319668679
 30
0.0
 40
1.338704730189856
100
AcDbArc
 50
217.3165979285772
 51
223.5424812420979
1001
AcDbBlockRepETag
1070
     1
1071
      507
1005
1086
  0
ARC
  5
1087
330
8AB
100
AcDbEntity
  8
Layer_0
  6
Continuous
100
AcDbCircle
 10
270.1912533148163
 20
22.83531927392926
 30
0.0
 40
1.07724440992668
100
AcDbArc
 50
210.2254228446609
 51
217.3198243307828
1001
AcDbBlockRepETag
1070
     1
1071
      508
1005
1087
  0
ARC
  5
1088
330
8AB
100
AcDbEntity
  8
Layer_0
  6
Continuous
100
AcDbCircle
 10
270.1083087214652
 20
22.78455973233292
 30
0.0
 40
0.9800257418716103
100
AcDbArc
 50
187.1705015941988
 51
210.1023996698685
1001
AcDbBlockRepETag
1070
     1
1071
      509
1005
1088
  0
ARC
  5
1089
330
8AB
100
AcDbEntity
  8
Layer_0
  6
Continuous
100
AcDbCircle
 10
270.3620646203651
 20
22.81835591538402
 30
0.0
 40
1.236016957898214
100
AcDbArc
 50
180.2616307503654
 51
187.2566034788539
1001
AcDbBlockRepETag
1070
     1
1071
      510
1005
1089
  0
ARC
  5
108A
330
8AB
100
AcDbEntity
  8
Layer_0
  6
Continuous
100
AcDbCircle
 10
288.9573916501108
 20
22.91011941399552
 30
0.0
 40
19.83157032309353
100
AcDbArc
 50
179.8349501568626
 51
180.2814231275571
1001
AcDbBlockRepETag
1070
     1
1071
      511
1005
108A
  0
LINE
  5
108B
330
8AB
100
AcDbEntity
  8
Layer_0
  6
Continuous
100
AcDbLine
 10
270.2157071658869
 20
22.97090481321936
 30
0.0
 11
270.2158802766883
 21
22.875138948418
 31
0.0
1001
AcDbBlockRepETag
1070
     1
1071
      512
1005
108B
  0
ARC
  5
108C
330
8AB
100
AcDbEntity
  8
Layer_0
  6
Continuous
100
AcDbCircle
 10
271.1696340062003
 20
22.88379668841685
 30
0.0
 40
0.9537930242038683
100
AcDbArc
 50
180.5200905875346
 51
188.6884056930345
1001
AcDbBlockRepETag
1070
     1
1071
      513
1005
108C
  0
ARC
  5
108D
330
8AB
100
AcDbEntity
  8
Layer_0
  6
Continuous
100
AcDbCircle
 10
270.8879533126312
 20
22.8430628477712
 30
0.0
 40
0.6691953777688299
100
AcDbArc
 50
188.8840032204496
 51
200.1417989678499
1001
AcDbBlockRepETag
1070
     1
1071
      514
1005
108D
  0
ARC
  5
108E
330
8AB
100
AcDbEntity
  8
Layer_0
  6
Continuous
100
AcDbCircle
 10
270.8326593965098
 20
22.82952343689567
 30
0.0
 40
0.6126535205328062
100
AcDbArc
 50
200.7336815388745
 51
232.3710740670548
1001
AcDbBlockRepETag
1070
     1
1071
      515
1005
108E
  0
ARC
  5
108F
330
8AB
100
AcDbEntity
  8
Layer_0
  6
Continuous
100
AcDbCircle
 10
270.7582282719585
 20
22.73423354981401
 30
0.0
 40
0.4917427371648037
100
AcDbArc
 50
232.4607100291265
 51
297.2141631514883
1001
AcDbBlockRepETag
1070
     1
1071
      516
1005
108F
  0
ARC
  5
1090
330
8AB
100
AcDbEntity
  8
Layer_0
  6
Continuous
100
AcDbCircle
 10
270.770908365766
 20
22.70155061000412
 30
0.0
 40
0.4568935971205895
100
AcDbArc
 50
297.6744016429185
 51
319.5486294378958
1001
AcDbBlockRepETag
1070
     1
1071
      517
1005
1090
  0
ARC
  5
1091
330
8AB
100
AcDbEntity
  8
Layer_0
  6
Continuous
100
AcDbCircle
 10
270.7101209709922
 20
22.75437873766339
 30
0.0
 40
0.5374257410036061
100
AcDbArc
 50
319.4675066209907
 51
332.1602433870556
1001
AcDbBlockRepETag
1070
     1
1071
      518
1005
1091
  0
ARC
  5
1092
330
8AB
100
AcDbEntity
  8
Layer_0
  6
Continuous
100
AcDbCircle
 10
270.5956618673342
 20
22.81639566122487
 30
0.0
 40
0.6676003842572471
100
AcDbArc
 50
332.041251709901
 51
341.0522955025569
1001
AcDbBlockRepETag
1070
     1
1071
      519
1005
1092
  0
ARC
  5
1093
330
8AB
100
AcDbEntity
  8
Layer_0
  6
Continuous
100
AcDbCircle
 10
270.4480249477308
 20
22.86860228975718
 30
0.0
 40
0.8241906582306215
100
AcDbArc
 50
340.952233066022
 51
346.9348208232776
1001
AcDbBlockRepETag
1070
     1
1071
      520
1005
1093
  0
ARC
  5
1094
330
8AB
100
AcDbEntity
  8
Layer_0
  6
Continuous
100
AcDbCircle
 10
270.1768087287712
 20
22.93105642976286
 30
0.0
 40
1.102504490799063
100
AcDbArc
 50
346.9594299739749
 51
353.4158802018374
1001
AcDbBlockRepETag
1070
     1
1071
      521
1005
1094
  0
ARC
  5
1095
330
8AB
100
AcDbEntity
  8
Layer_0
  6
Continuous
100
AcDbCircle
 10
269.8803929190103
 20
22.96720130796723
 30
0.0
 40
1.401111066471409
100
AcDbArc
 50
353.3374099461259
 51
8.060359901865181
1001
AcDbBlockRepETag
1070
     1
1071
      522
1005
1095
  0
ARC
  5
1096
330
8AB
100
AcDbEntity
  8
Layer_0
  6
Continuous
100
AcDbCircle
 10
270.2433846577985
 20
23.01671789368731
 30
0.0
 40
1.03476401778512
100
AcDbArc
 50
8.163899815758361
 51
14.92231978239237
1001
AcDbBlockRepETag
1070
     1
1071
      523
1005
1096
  0
ARC
  5
1097
330
8AB
100
AcDbEntity
  8
Layer_0
  6
Continuous
100
AcDbCircle
 10
270.508158342843
 20
23.08567138685055
 30
0.0
 40
0.7611650277289744
100
AcDbArc
 50
15.03926320058391
 51
23.37770641101925
1001
AcDbBlockRepETag
1070
     1
1071
      524
1005
1097
  0
ARC
  5
1098
330
8AB
100
AcDbEntity
  8
Layer_0
  6
Continuous
100
AcDbCircle
 10
270.6533958817745
 20
23.14836475772779
 30
0.0
 40
0.6029740262207829
100
AcDbArc
 50
23.38550767112353
 51
35.2258917977839
1001
AcDbBlockRepETag
1070
     1
1071
      525
1005
1098
  0
ARC
  5
1099
330
8AB
100
AcDbEntity
  8
Layer_0
  6
Continuous
100
AcDbCircle
 10
270.7477365829861
 20
23.21436034039527
 30
0.0
 40
0.4878424949324507
100
AcDbArc
 50
35.28521478678376
 51
53.75603884728609
1001
AcDbBlockRepETag
1070
     1
1071
      526
1005
1099
  0
ARC
  5
109A
330
8AB
100
AcDbEntity
  8
Layer_0
  6
Continuous
100
AcDbCircle
 10
270.7644571254409
 20
23.23139797758722
 30
0.0
 40
0.4642284659435544
100
AcDbArc
 50
54.17717685884639
 51
83.01952571193004
1001
AcDbBlockRepETag
1070
     1
1071
      527
1005
109A
  0
ARC
  5
109B
330
8AB
100
AcDbEntity
  8
Layer_0
  6
Continuous
100
AcDbCircle
 10
270.7582388815306
 20
23.21033809949426
 30
0.0
 40
0.4859013809349186
100
AcDbArc
 50
82.59352232688923
 51
127.8552643208367
1001
AcDbBlockRepETag
1070
     1
1071
      528
1005
109B
  0
ARC
  5
109C
330
8AB
100
AcDbEntity
  8
Layer_0
  6
Continuous
100
AcDbCircle
 10
270.8386310876676
 20
23.10415723522931
 30
0.0
 40
0.6190744033243656
100
AcDbArc
 50
127.6993026702627
 51
171.1767988945917
1001
AcDbBlockRepETag
1070
     1
1071
      529
1005
109C
  0
ARC
  5
109D
330
8AB
100
AcDbEntity
  8
Layer_0
  6
Continuous
100
AcDbCircle
 10
271.1225225144322
 20
23.05747073738803
 30
0.0
 40
0.9067711096176084
100
AcDbArc
 50
171.0132049168526
 51
180.2330212340836
1001
AcDbBlockRepETag
1070
     1
1071
      530
1005
109D
  0
ARC
  5
109E
330
8AB
100
AcDbEntity
  8
Layer_0
  6
Continuous
100
AcDbCircle
 10
287.5143673292452
 20
23.00154489543638
 30
0.0
 40
17.29868729880962
100
AcDbArc
 50
179.8269797664061
 51
180.1014844816173
1001
AcDbBlockRepETag
1070
     1
1071
      531
1005
109E
  0
LINE
  5
109F
330
8AB
100
AcDbEntity
  8
Layer_0
  6
Continuous
100
AcDbLine
 10
272.6606854188381
 20
24.36683591052418
 30
0.0
 11
273.6755093486158
 21
24.36683591052418
 31
0.0
1001
AcDbBlockRepETag
1070
     1
1071
      532
1005
109F
  0
LINE
  5
10A0
330
8AB
100
AcDbEntity
  8
Layer_0
  6
Continuous
100
AcDbLine
 10
273.6755093486158
 20
24.36683591052418
 30
0.0
 11
273.6755093486158
 21
23.90172372919085
 31
0.0
1001
AcDbBlockRepETag
1070
     1
1071
      533
1005
10A0
  0
LINE
  5
10A1
330
8AB
100
AcDbEntity
  8
Layer_0
  6
Continuous
100
AcDbLine
 10
273.6755093486158
 20
23.90172372919085
 30
0.0
 11
273.7454674816513
 21
23.98858346955728
 31
0.0
1001
AcDbBlockRepETag
1070
     1
1071
      534
1005
10A1
  0
ARC
  5
10A2
330
8AB
100
AcDbEntity
  8
Layer_0
  6
Continuous
100
AcDbCircle
 10
274.670153536536
 20
23.22789010107204
 30
0.0
 40
1.197371580151914
100
AcDbArc
 50
123.3356973853619
 51
140.5575630378786
1001
AcDbBlockRepETag
1070
     1
1071
      535
1005
10A2
  0
ARC
  5
10A3
330
8AB
100
AcDbEntity
  8
Layer_0
  6
Continuous
100
AcDbCircle
 10
274.6208569327584
 20
23.27657659283113
 30
0.0
 40
1.129697254456659
100
AcDbArc
 50
103.0663785820881
 51
122.6038066303244
1001
AcDbBlockRepETag
1070
     1
1071
      536
1005
10A3
  0
ARC
  5
10A4
330
8AB
100
AcDbEntity
  8
Layer_0
  6
Continuous
100
AcDbCircle
 10
274.6885848209942
 20
23.02099720170748
 30
0.0
 40
1.393995368206707
100
AcDbArc
 50
84.11600276496001
 51
103.4031283724489
1001
AcDbBlockRepETag
1070
     1
1071
      537
1005
10A4
  0
ARC
  5
10A5
330
8AB
100
AcDbEntity
  8
Layer_0
  6
Continuous
100
AcDbCircle
 10
274.7196659843027
 20
23.34695231638717
 30
0.0
 40
1.066574200104674
100
AcDbArc
 50
72.51599666452706
 51
83.98182313130842
1001
AcDbBlockRepETag
1070
     1
1071
      538
1005
10A5
  0
ARC
  5
10A6
330
8AB
100
AcDbEntity
  8
Layer_0
  6
Continuous
100
AcDbCircle
 10
274.7744310419578
 20
23.54167053066385
 30
0.0
 40
0.8644209221086271
100
AcDbArc
 50
49.99183907562681
 51
72.10066261118463
1001
AcDbBlockRepETag
1070
     1
1071
      539
1005
10A6
  0
ARC
  5
10A7
330
8AB
100
AcDbEntity
  8
Layer_0
  6
Continuous
100
AcDbCircle
 10
274.7318458223215
 20
23.48026983532293
 30
0.0
 40
0.9388538929526275
100
AcDbArc
 50
28.75531539487086
 51
50.41024846733385
1001
AcDbBlockRepETag
1070
     1
1071
      540
1005
10A7
  0
ARC
  5
10A8
330
8AB
100
AcDbEntity
  8
Layer_0
  6
Continuous
100
AcDbCircle
 10
274.8206529609749
 20
23.53724261552554
 30
0.0
 40
0.8336216666104432
100
AcDbArc
 50
11.51717186500991
 51
28.25875689354742
1001
AcDbBlockRepETag
1070
     1
1071
      541
1005
10A8
  0
ARC
  5
10A9
330
8AB
100
AcDbEntity
  8
Layer_0
  6
Continuous
100
AcDbCircle
 10
274.4928350631258
 20
23.46727397876884
 30
0.0
 40
1.168813102231762
100
AcDbArc
 50
0.2426826214097437
 51
11.669486577482
1001
AcDbBlockRepETag
1070
     1
1071
      542
1005
10A9
  0
ARC
  5
10AA
330
8AB
100
AcDbEntity
  8
Layer_0
  6
Continuous
100
AcDbCircle
 10
265.7092275693265
 20
23.38122703575266
 30
0.0
 40
9.952826110488862
100
AcDbArc
 50
359.7081149363341
 51
0.5238561427325204
1001
AcDbBlockRepETag
1070
     1
1071
      543
1005
10AA
  0
LINE
  5
10AB
330
8AB
100
AcDbEntity
  8
Layer_0
  6
Continuous
100
AcDbLine
 10
275.6619245299491
 20
23.33052402163525
 30
0.0
 11
275.6619245299491
 21
21.5253585771909
 31
0.0
1001
AcDbBlockRepETag
1070
     1
1071
      544
1005
10AB
  0
LINE
  5
10AC
330
8AB
100
AcDbEntity
  8
Layer_0
  6
Continuous
100
AcDbLine
 10
275.6619245299491
 20
21.5253585771909
 30
0.0
 11
274.5664151966159
 21
21.5253585771909
 31
0.0
1001
AcDbBlockRepETag
1070
     1
1071
      545
1005
10AC
  0
LINE
  5
10AD
330
8AB
100
AcDbEntity
  8
Layer_0
  6
Continuous
100
AcDbLine
 10
274.5664151966159
 20
21.5253585771909
 30
0.0
 11
274.5664151966159
 21
23.08499299230198
 31
0.0
1001
AcDbBlockRepETag
1070
     1
1071
      546
1005
10AD
  0
LINE
  5
10AE
330
8AB
100
AcDbEntity
  8
Layer_0
  6
Continuous
100
AcDbLine
 10
274.5664151966159
 20
23.08499299230198
 30
0.0
 11
274.5660163776574
 21
23.16665851582616
 31
0.0
1001
AcDbBlockRepETag
1070
     1
1071
      547
1005
10AE
  0
ARC
  5
10AF
330
8AB
100
AcDbEntity
  8
Layer_0
  6
Continuous
100
AcDbCircle
 10
273.9709926953712
 20
23.15554908163938
 30
0.0
 40
0.595127383010949
100
AcDbArc
 50
1.069620863934632
 51
14.3030219676347
1001
AcDbBlockRepETag
1070
     1
1071
      548
1005
10AF
  0
ARC
  5
10B0
330
8AB
100
AcDbEntity
  8
Layer_0
  6
Continuous
100
AcDbCircle
 10
274.2124659373155
 20
23.21460061260984
 30
0.0
 40
0.3465590249130723
100
AcDbArc
 50
14.70558161454321
 51
80.93188643917155
1001
AcDbBlockRepETag
1070
     1
1071
      549
1005
10B0
  0
ARC
  5
10B1
330
8AB
100
AcDbEntity
  8
Layer_0
  6
Continuous
100
AcDbCircle
 10
274.194317637842
 20
23.14145004706984
 30
0.0
 40
0.4217041086271164
100
AcDbArc
 50
80.0633457414038
 51
114.441759121502
1001
AcDbBlockRepETag
1070
     1
1071
      550
1005
10B1
  0
ARC
  5
10B2
330
8AB
100
AcDbEntity
  8
Layer_0
  6
Continuous
100
AcDbCircle
 10
274.1978625242364
 20
23.15504035476863
 30
0.0
 40
0.4108938212799166
100
AcDbArc
 50
115.675975576647
 51
140.5525011622039
1001
AcDbBlockRepETag
1070
     1
1071
      551
1005
10B2
  0
ARC
  5
10B3
330
8AB
100
AcDbEntity
  8
Layer_0
  6
Continuous
100
AcDbCircle
 10
274.2725127874826
 20
23.08776520903723
 30
0.0
 40
0.5113039319720855
100
AcDbArc
 50
140.046020702827
 51
166.8354106765118
1001
AcDbBlockRepETag
1070
     1
1071
      552
1005
10B3
  0
ARC
  5
10B4
330
8AB
100
AcDbEntity
  8
Layer_0
  6
Continuous
100
AcDbCircle
 10
274.6420170370821
 20
23.00037549150909
 30
0.0
 40
0.8910009788429674
100
AcDbArc
 50
166.7750390156017
 51
179.4824830770324
1001
AcDbBlockRepETag
1070
     1
1071
      553
1005
10B4
  0
ARC
  5
10B5
330
8AB
100
AcDbEntity
  8
Layer_0
  6
Continuous
100
AcDbCircle
 10
278.2278021085904
 20
22.9270505123859
 30
0.0
 40
4.47748918940833
100
AcDbArc
 50
178.9586640767896
 51
180.5080965234377
1001
AcDbBlockRepETag
1070
     1
1071
      554
1005
10B5
  0
LINE
  5
10B6
330
8AB
100
AcDbEntity
  8
Layer_0
  6
Continuous
100
AcDbLine
 10
273.7504889743937
 20
22.88734485007978
 30
0.0
 11
273.7504889743937
 21
21.5253585771909
 31
0.0
1001
AcDbBlockRepETag
1070
     1
1071
      555
1005
10B6
  0
LINE
  5
10B7
330
8AB
100
AcDbEntity
  8
Layer_0
  6
Continuous
100
AcDbLine
 10
273.7504889743937
 20
21.5253585771909
 30
0.0
 11
272.6606854188381
 21
21.5253585771909
 31
0.0
1001
AcDbBlockRepETag
1070
     1
1071
      556
1005
10B7
  0
LINE
  5
10B8
330
8AB
100
AcDbEntity
  8
Layer_0
  6
Continuous
100
AcDbLine
 10
272.6606854188381
 20
21.5253585771909
 30
0.0
 11
272.6606854188381
 21
24.36683591052418
 31
0.0
1001
AcDbBlockRepETag
1070
     1
1071
      557
1005
10B8
  0
LINE
  5
10B9
330
8AB
100
AcDbEntity
  8
0
100
AcDbLine
 10
258.5861603245214
 20
22.68907488390607
 30
0.0
 11
258.5861603245214
 21
23.30231971460637
 31
0.0
1001
AcDbBlockRepETag
1070
     1
1071
      558
1005
10B9
  0
LINE
  5
10BA
330
8AB
100
AcDbEntity
  8
0
100
AcDbLine
 10
221.4007807079617
 20
23.59727515254019
 30
0.0
 11
223.1288162635173
 21
25.32531070809568
 31
0.0
1001
AcDbBlockRepETag
1070
     1
1071
      559
1005
10BA
  0
LINE
  5
10BB
330
8AB
100
AcDbEntity
  8
0
100
AcDbLine
 10
221.4007807079617
 20
24.18415515254014
 30
0.0
 11
223.1288162635173
 21
25.91219070809575
 31
0.0
1001
AcDbBlockRepETag
1070
     1
1071
      560
1005
10BB
  0
ENDBLK
  5
8AD
330
8AB
100
AcDbEntity
  8
0
100
AcDbBlockEnd
  0
BLOCK
  5
B10
330
B0B
100
AcDbEntity
  8
0
100
AcDbBlockBegin
  2
_Closed
 70
     0
 10
0.0
 20
0.0
 30
0.0
  3
_Closed
  1

  0
LINE
  5
B0C
330
B0B
100
AcDbEntity
  8
0
  6
ByBlock
 62
     0
370
    -2
100
AcDbLine
 10
-1.0
 20
0.1666666666666666
 30
0.0
 11
0.0
 21
0.0
 31
0.0
  0
LINE
  5
B0D
330
B0B
100
AcDbEntity
  8
0
  6
ByBlock
 62
     0
370
    -2
100
AcDbLine
 10
0.0
 20
0.0
 30
0.0
 11
-1.0
 21
-0.1666666666666666
 31
0.0
  0
LINE
  5
B0E
330
B0B
100
AcDbEntity
  8
0
  6
ByBlock
 62
     0
370
    -2
100
AcDbLine
 10
-1.0
 20
0.1666666666666666
 30
0.0
 11
-1.0
 21
-0.1666666666666666
 31
0.0
  0
LINE
  5
B0F
330
B0B
100
AcDbEntity
  8
0
  6
ByBlock
 62
     0
370
    -2
100
AcDbLine
 10
0.0
 20
0.0
 30
0.0
 11
-1.0
 21
0.0
 31
0.0
  0
ENDBLK
  5
B11
330
B0B
100
AcDbEntity
  8
0
100
AcDbBlockEnd
  0
BLOCK
  5
BD9
330
BD8
100
AcDbEntity
  8
0
100
AcDbBlockBegin
  2
A4横_kda1
 70
     0
 10
0.0
 20
0.0
 30
0.0
  3
A4横_kda1
  1

  0
INSERT
  5
BDB
102
{ACAD_XDICTIONARY
360
12F7
102
}
330
BD8
100
AcDbEntity
  8
0
100
AcDbBlockReference
  2
A4横（ねじ）
 10
-51.6653563408979
 20
153.8203500987603
 30
0.0
  0
ENDBLK
  5
BDA
330
BD8
100
AcDbEntity
  8
0
100
AcDbBlockEnd
  0
BLOCK
  5
13C8
330
13BC
100
AcDbEntity
  8
0
100
AcDbBlockBegin
  2
*D4
 70
     1
 10
0.0
 20
0.0
 30
0.0
  3
*D4
  1

  0
LINE
  5
1E07
330
13BC
100
AcDbEntity
  8
Dimension
 62
     0
370
    -2
100
AcDbLine
 10
365.6617431686862
 20
314.4112452601385
 30
0.0
 11
365.6617431686862
 21
327.4112452601384
 31
0.0
  0
LINE
  5
1E08
330
13BC
100
AcDbEntity
  8
Dimension
 62
     0
370
    -2
100
AcDbLine
 10
377.4617431686862
 20
314.4112452601385
 30
0.0
 11
377.4617431686862
 21
327.4112452601384
 31
0.0
  0
LINE
  5
1E09
330
13BC
100
AcDbEntity
  8
Dimension
 62
     0
370
    -2
100
AcDbLine
 10
366.6617431686863
 20
326.9112452601384
 30
0.0
 11
376.4617431686862
 21
326.9112452601384
 31
0.0
  0
INSERT
  5
1E0A
330
13BC
100
AcDbEntity
  8
Dimension
 62
     0
370
    -2
100
AcDbBlockReference
  2
_Open30
 10
365.6617431686862
 20
326.9112452601384
 30
0.0
 50
180.0
  0
INSERT
  5
1E0B
330
13BC
100
AcDbEntity
  8
Dimension
 62
     0
370
    -2
100
AcDbBlockReference
  2
_Open30
 10
377.4617431686862
 20
326.9112452601384
 30
0.0
  0
MTEXT
  5
1E0C
330
13BC
100
AcDbEntity
  8
Dimension
 62
     0
100
AcDbMText
 10
371.5617431686862
 20
328.0612452601383
 30
0.0
 40
1.3
 41
0.0
 71
     5
 72
     1
  1
11.8
  7
FontStyle1
 73
     1
 44
1.0
1001
ACAD
1000
MTEXTBEGIN
1070
    73
1070
     1
1070
    44
1040
1.0
1070
    74
1070
     0
1000
MTEXTEND
  0
POINT
  5
1E0D
330
13BC
100
AcDbEntity
  8
Defpoints
 62
     0
100
AcDbPoint
 10
365.6617431686862
 20
313.9112452601385
 30
0.0
  0
POINT
  5
1E0E
330
13BC
100
AcDbEntity
  8
Defpoints
 62
     0
100
AcDbPoint
 10
377.4617431686862
 20
313.9112452601385
 30
0.0
  0
POINT
  5
1E0F
330
13BC
100
AcDbEntity
  8
Defpoints
 62
     0
100
AcDbPoint
 10
377.4617431686862
 20
326.9112452601384
 30
0.0
  0
ENDBLK
  5
13C9
330
13BC
100
AcDbEntity
  8
0
100
AcDbBlockEnd
  0
BLOCK
  5
1430
330
1426
100
AcDbEntity
  8
0
100
AcDbBlockBegin
  2
*D5
 70
     1
 10
0.0
 20
0.0
 30
0.0
  3
*D5
  1

  0
LINE
  5
1446
330
1426
100
AcDbEntity
  8
Dimension
 62
     0
370
    -2
100
AcDbLine
 10
379.0947431686863
 20
315.8362452601385
 30
0.0
 11
379.0947431686863
 21
318.8536891336469
 31
0.0
  0
LINE
  5
1447
330
1426
100
AcDbEntity
  8
Dimension
 62
     0
370
    -2
100
AcDbLine
 10
384.0947431686863
 20
314.9217452601386
 30
0.0
 11
384.0947431686863
 21
318.8536891336469
 31
0.0
  0
LINE
  5
1448
330
1426
100
AcDbEntity
  8
Dimension
 62
     0
370
    -2
100
AcDbLine
 10
379.3947431686863
 20
318.5536891336469
 30
0.0
 11
383.7947431686862
 21
318.5536891336469
 31
0.0
  0
INSERT
  5
1449
330
1426
100
AcDbEntity
  8
Dimension
 62
     0
370
    -2
100
AcDbBlockReference
  2
_Open30
 10
379.0947431686863
 20
318.5536891336469
 30
0.0
 41
0.3
 42
0.3
 43
0.3
 50
180.0
  0
INSERT
  5
144A
330
1426
100
AcDbEntity
  8
Dimension
 62
     0
370
    -2
100
AcDbBlockReference
  2
_Open30
 10
384.0947431686863
 20
318.5536891336469
 30
0.0
 41
0.3
 42
0.3
 43
0.3
  0
MTEXT
  5
144B
330
1426
100
AcDbEntity
  8
Dimension
 62
     0
100
AcDbMText
 10
381.5947431686863
 20
319.2536891336469
 30
0.0
 40
0.8
 41
0.0
 71
     5
 72
     1
  1
5
  7
FontStyle1
 73
     1
 44
1.0
1001
ACAD
1000
MTEXTBEGIN
1070
    73
1070
     1
1070
    44
1040
1.0
1070
    74
1070
     0
1000
MTEXTEND
  0
POINT
  5
144C
330
1426
100
AcDbEntity
  8
Defpoints
 62
     0
100
AcDbPoint
 10
379.0947431686863
 20
315.5362452601385
 30
0.0
  0
POINT
  5
144D
330
1426
100
AcDbEntity
  8
Defpoints
 62
     0
100
AcDbPoint
 10
384.0947431686863
 20
314.6217452601387
 30
0.0
  0
POINT
  5
144E
330
1426
100
AcDbEntity
  8
Defpoints
 62
     0
100
AcDbPoint
 10
384.0947431686863
 20
318.5536891336469
 30
0.0
  0
ENDBLK
  5
1431
330
1426
100
AcDbEntity
  8
0
100
AcDbBlockEnd
  0
BLOCK
  5
145A
330
1450
100
AcDbEntity
  8
0
100
AcDbBlockBegin
  2
*D6
 70
     1
 10
0.0
 20
0.0
 30
0.0
  3
*D6
  1

  0
LINE
  5
1E22
330
1450
100
AcDbEntity
  8
Dimension
 62
     0
370
    -2
100
AcDbLine
 10
396.1228562151585
 20
320.3112452601384
 30
0.0
 11
396.1228562151585
 21
327.4112452601384
 31
0.0
  0
LINE
  5
1E23
330
1450
100
AcDbEntity
  8
Dimension
 62
     0
370
    -2
100
AcDbLine
 10
436.1228562151583
 20
316.8697452601383
 30
0.0
 11
436.1228562151583
 21
327.4112452601384
 31
0.0
  0
LINE
  5
1E24
330
1450
100
AcDbEntity
  8
Dimension
 62
     0
370
    -2
100
AcDbLine
 10
397.1228562151584
 20
326.9112452601384
 30
0.0
 11
435.1228562151582
 21
326.9112452601384
 31
0.0
  0
INSERT
  5
1E25
330
1450
100
AcDbEntity
  8
Dimension
 62
     0
370
    -2
100
AcDbBlockReference
  2
_Open30
 10
396.1228562151585
 20
326.9112452601384
 30
0.0
 50
180.0
  0
INSERT
  5
1E26
330
1450
100
AcDbEntity
  8
Dimension
 62
     0
370
    -2
100
AcDbBlockReference
  2
_Open30
 10
436.1228562151583
 20
326.9112452601384
 30
0.0
  0
MTEXT
  5
1E27
330
1450
100
AcDbEntity
  8
Dimension
 62
     0
100
AcDbMText
 10
416.1228562151583
 20
328.0612452601383
 30
0.0
 40
1.3
 41
0.0
 71
     5
 72
     1
  1
40
  7
FontStyle1
 73
     1
 44
1.0
1001
ACAD
1000
MTEXTBEGIN
1070
    73
1070
     1
1070
    44
1040
1.0
1070
    74
1070
     0
1000
MTEXTEND
  0
POINT
  5
1E28
330
1450
100
AcDbEntity
  8
Defpoints
 62
     0
100
AcDbPoint
 10
396.1228562151585
 20
319.8112452601384
 30
0.0
  0
POINT
  5
1E29
330
1450
100
AcDbEntity
  8
Defpoints
 62
     0
100
AcDbPoint
 10
436.1228562151583
 20
316.3697452601383
 30
0.0
  0
POINT
  5
1E2A
330
1450
100
AcDbEntity
  8
Defpoints
 62
     0
100
AcDbPoint
 10
436.1228562151583
 20
326.9112452601384
 30
0.0
  0
ENDBLK
  5
145B
330
1450
100
AcDbEntity
  8
0
100
AcDbBlockEnd
  0
BLOCK
  5
1472
330
1468
100
AcDbEntity
  8
0
100
AcDbBlockBegin
  2
*D7
 70
     1
 10
0.0
 20
0.0
 30
0.0
  3
*D7
  1

  0
LINE
  5
1D06
330
1468
100
AcDbEntity
  8
Dimension
 62
     0
370
    -2
100
AcDbLine
 10
421.1228562151584
 20
317.4112452601383
 30
0.0
 11
421.1228562151584
 21
322.4112452601383
 31
0.0
  0
LINE
  5
1D07
330
1468
100
AcDbEntity
  8
Dimension
 62
     0
370
    -2
100
AcDbLine
 10
436.1228562151583
 20
316.8697452601382
 30
0.0
 11
436.1228562151583
 21
322.4112452601383
 31
0.0
  0
LINE
  5
1D08
330
1468
100
AcDbEntity
  8
Dimension
 62
     0
370
    -2
100
AcDbLine
 10
422.1228562151583
 20
321.9112452601383
 30
0.0
 11
435.1228562151582
 21
321.9112452601383
 31
0.0
  0
INSERT
  5
1D09
330
1468
100
AcDbEntity
  8
Dimension
 62
     0
370
    -2
100
AcDbBlockReference
  2
_Open30
 10
421.1228562151584
 20
321.9112452601383
 30
0.0
 50
180.0
  0
INSERT
  5
1D0A
330
1468
100
AcDbEntity
  8
Dimension
 62
     0
370
    -2
100
AcDbBlockReference
  2
_Open30
 10
436.1228562151583
 20
321.9112452601383
 30
0.0
  0
MTEXT
  5
1D0B
330
1468
100
AcDbEntity
  8
Dimension
 62
     0
100
AcDbMText
 10
428.6228562151584
 20
323.0612452601383
 30
0.0
 40
1.3
 41
0.0
 71
     5
 72
     1
  1
15
  7
FontStyle1
 73
     1
 44
1.0
1001
ACAD
1000
MTEXTBEGIN
1070
    73
1070
     1
1070
    44
1040
1.0
1070
    74
1070
     0
1000
MTEXTEND
  0
POINT
  5
1D0C
330
1468
100
AcDbEntity
  8
Defpoints
 62
     0
100
AcDbPoint
 10
421.1228562151584
 20
316.9112452601384
 30
0.0
  0
POINT
  5
1D0D
330
1468
100
AcDbEntity
  8
Defpoints
 62
     0
100
AcDbPoint
 10
436.1228562151583
 20
316.3697452601383
 30
0.0
  0
POINT
  5
1D0E
330
1468
100
AcDbEntity
  8
Defpoints
 62
     0
100
AcDbPoint
 10
436.1228562151583
 20
321.9112452601383
 30
0.0
  0
ENDBLK
  5
1473
330
1468
100
AcDbEntity
  8
0
100
AcDbBlockEnd
  0
BLOCK
  5
148B
330
1480
100
AcDbEntity
  8
0
100
AcDbBlockBegin
  2
*D8
 70
     1
 10
0.0
 20
0.0
 30
0.0
  3
*D8
  1

  0
LINE
  5
1D42
330
1480
100
AcDbEntity
  8
Dimension
 62
     0
370
    -2
100
AcDbLine
 10
436.0813562151584
 20
316.9112452601384
 30
0.0
 11
443.3012147902863
 21
316.9112452601384
 31
0.0
  0
LINE
  5
1D43
330
1480
100
AcDbEntity
  8
Dimension
 62
     0
370
    -2
100
AcDbLine
 10
436.0813562151581
 20
310.9112452601384
 30
0.0
 11
443.3012147902863
 21
310.9112452601384
 31
0.0
  0
LINE
  5
1D44
330
1480
100
AcDbEntity
  8
Dimension
 62
     0
370
    -2
100
AcDbLine
 10
442.8012147902863
 20
315.9112452601383
 30
0.0
 11
442.8012147902863
 21
311.9112452601383
 31
0.0
  0
INSERT
  5
1D45
330
1480
100
AcDbEntity
  8
Dimension
 62
     0
370
    -2
100
AcDbBlockReference
  2
_Open30
 10
442.8012147902863
 20
316.9112452601384
 30
0.0
 50
90.0
  0
INSERT
  5
1D46
330
1480
100
AcDbEntity
  8
Dimension
 62
     0
370
    -2
100
AcDbBlockReference
  2
_Open30
 10
442.8012147902863
 20
310.9112452601384
 30
0.0
 50
270.0
  0
MTEXT
  5
1D47
330
1480
100
AcDbEntity
  8
Dimension
 62
     0
100
AcDbMText
 10
441.6512147902862
 20
313.6991186981991
 30
0.0
 40
1.3
 41
0.0
 71
     5
 72
     1
  1
%%C6
  7
FontStyle1
 11
0.0000000000000001
 21
1.0
 31
0.0
 73
     1
 44
1.0
1001
ACAD
1000
MTEXTBEGIN
1070
    73
1070
     1
1070
    44
1040
1.0
1070
    74
1070
     0
1000
MTEXTEND
  0
POINT
  5
1D48
330
1480
100
AcDbEntity
  8
Defpoints
 62
     0
100
AcDbPoint
 10
435.5813562151584
 20
316.9112452601384
 30
0.0
  0
POINT
  5
1D49
330
1480
100
AcDbEntity
  8
Defpoints
 62
     0
100
AcDbPoint
 10
435.5813562151581
 20
310.9112452601384
 30
0.0
  0
POINT
  5
1D4A
330
1480
100
AcDbEntity
  8
Defpoints
 62
     0
100
AcDbPoint
 10
442.8012147902863
 20
310.9112452601384
 30
0.0
  0
ENDBLK
  5
148C
330
1480
100
AcDbEntity
  8
0
100
AcDbBlockEnd
  0
BLOCK
  5
16FA
330
16EF
100
AcDbEntity
  8
0
100
AcDbBlockBegin
  2
*D9
 70
     1
 10
0.0
 20
0.0
 30
0.0
  3
*D9
  1

  0
LINE
  5
16FD
330
16EF
100
AcDbEntity
  8
Center
 62
     0
370
    -2
100
AcDbLine
 10
374.2367431686862
 20
313.6112452601385
 30
0.0
 11
374.2367431686862
 21
309.9513449533735
 31
0.0
  0
LINE
  5
16FE
330
16EF
100
AcDbEntity
  8
Center
 62
     0
370
    -2
100
AcDbLine
 10
375.5742431686862
 20
313.6112452601385
 30
0.0
 11
375.5742431686862
 21
309.9513449533735
 31
0.0
  0
LINE
  5
16FF
330
16EF
100
AcDbEntity
  8
Center
 62
     0
370
    -2
100
AcDbLine
 10
374.5367431686863
 20
310.2513449533736
 30
0.0
 11
375.2742431686862
 21
310.2513449533736
 31
0.0
  0
LINE
  5
1700
330
16EF
100
AcDbEntity
  8
Center
 62
     0
370
    -2
100
AcDbLine
 10
375.5742431686862
 20
310.2513449533736
 30
0.0
 11
378.7980526924958
 21
310.2513449533736
 31
0.0
  0
INSERT
  5
1701
330
16EF
100
AcDbEntity
  8
Center
 62
     0
370
    -2
100
AcDbBlockReference
  2
_Open30
 10
374.2367431686862
 20
310.2513449533736
 30
0.0
 41
0.3
 42
0.3
 43
0.3
 50
180.0
  0
INSERT
  5
1702
330
16EF
100
AcDbEntity
  8
Center
 62
     0
370
    -2
100
AcDbBlockReference
  2
_Open30
 10
375.5742431686862
 20
310.2513449533736
 30
0.0
 41
0.3
 42
0.3
 43
0.3
  0
MTEXT
  5
1703
330
16EF
100
AcDbEntity
  8
Center
 62
     0
100
AcDbMText
 10
377.336147930591
 20
310.9513449533736
 30
0.0
 40
0.8
 41
0.0
 71
     5
 72
     1
  1
1.34
  7
FontStyle1
 73
     1
 44
1.0
1001
ACAD
1000
MTEXTBEGIN
1070
    73
1070
     1
1070
    44
1040
1.0
1070
    74
1070
     0
1000
MTEXTEND
  0
POINT
  5
1704
330
16EF
100
AcDbEntity
  8
Defpoints
 62
     0
100
AcDbPoint
 10
374.2367431686862
 20
313.9112452601385
 30
0.0
  0
POINT
  5
1705
330
16EF
100
AcDbEntity
  8
Defpoints
 62
     0
100
AcDbPoint
 10
375.5742431686862
 20
313.9112452601385
 30
0.0
  0
POINT
  5
1706
330
16EF
100
AcDbEntity
  8
Defpoints
 62
     0
100
AcDbPoint
 10
375.5742431686862
 20
310.2513449533736
 30
0.0
  0
ENDBLK
  5
16FB
330
16EF
100
AcDbEntity
  8
0
100
AcDbBlockEnd
  0
BLOCK
  5
1A15
330
19AC
100
AcDbEntity
  8
0
100
AcDbBlockBegin
  2
A$C15F051E2
 70
     0
 10
0.0
 20
0.0
 30
0.0
  3
A$C15F051E2
  1

  0
LINE
  5
19AD
330
19AC
100
AcDbEntity
  8
0
100
AcDbLine
 10
195.9861135170979
 20
8.008499700397576
 30
0.0
 11
195.9861135170979
 21
3.091499700397661
 31
0.0
  0
LINE
  5
19AE
330
19AC
100
AcDbEntity
  8
0
100
AcDbLine
 10
180.9861135170979
 20
8.549999700397393
 30
0.0
 11
180.9861135170979
 21
2.549999700397393
 31
0.0
  0
LINE
  5
19AF
330
19AC
100
AcDbEntity
  8
0
100
AcDbLine
 10
195.4446135170979
 20
8.54999970039762
 30
0.0
 11
195.4446135170979
 21
2.54999970039762
 31
0.0
  0
LINE
  5
19B0
330
19AC
100
AcDbEntity
  8
0
100
AcDbLine
 10
159.1111135170979
 20
2.54999970039762
 30
0.0
 11
195.4446135170976
 21
2.54999970039762
 31
0.0
  0
LINE
  5
19B1
330
19AC
100
AcDbEntity
  8
0
100
AcDbLine
 10
180.9861135170981
 20
3.091499700397661
 30
0.0
 11
195.9861135170979
 21
3.091499700397661
 31
0.0
  0
LINE
  5
19B2
330
19AC
100
AcDbEntity
  8
0
100
AcDbLine
 10
159.1111135170979
 20
8.54999970039762
 30
0.0
 11
195.4446135170979
 21
8.54999970039762
 31
0.0
  0
LINE
  5
19B3
330
19AC
100
AcDbEntity
  8
0
100
AcDbLine
 10
180.9861135170979
 20
8.008499700397351
 30
0.0
 11
195.9861135170979
 21
8.008499700397576
 31
0.0
  0
LINE
  5
19B4
330
19AC
100
AcDbEntity
  8
0
100
AcDbLine
 10
195.9861135170979
 20
8.008499700397576
 30
0.0
 11
195.4446135170979
 21
8.54999970039762
 31
0.0
  0
LINE
  5
19B5
330
19AC
100
AcDbEntity
  8
0
100
AcDbLine
 10
195.9861135170979
 20
3.091499700397661
 30
0.0
 11
195.4446135170979
 21
2.549999700397845
 31
0.0
  0
LINE
  5
19B6
330
19AC
100
AcDbEntity
  8
0
100
AcDbLine
 10
180.9861135170979
 20
8.008499700397351
 30
0.0
 11
180.4446135170979
 21
8.549999700397393
 31
0.0
  0
LINE
  5
19B7
330
19AC
100
AcDbEntity
  8
0
100
AcDbLine
 10
180.9861135170979
 20
3.091499700397433
 30
0.0
 11
180.4446135170979
 21
2.54999970039762
 31
0.0
  0
LINE
  5
19B8
330
19AC
100
AcDbEntity
  8
0
100
AcDbLine
 10
51.90733689833649
 20
65.49110889040822
 30
0.0
 11
51.90733689833649
 21
61.3571088904082
 31
0.0
  0
LINE
  5
19B9
330
19AC
100
AcDbEntity
  8
0
100
AcDbLine
 10
36.90733689833655
 20
65.9241088904082
 30
0.0
 11
36.90733689833655
 21
60.9241088904082
 31
0.0
  0
LINE
  5
19BA
330
19AC
100
AcDbEntity
  8
0
100
AcDbLine
 10
51.47433689833651
 20
65.9241088904082
 30
0.0
 11
51.47433689833651
 21
60.9241088904082
 31
0.0
  0
LINE
  5
19BB
330
19AC
100
AcDbEntity
  8
0
100
AcDbLine
 10
24.45733689833651
 20
65.9241088904082
 30
0.0
 11
51.47433689833651
 21
65.9241088904082
 31
0.0
  0
LINE
  5
19BC
330
19AC
100
AcDbEntity
  8
0
100
AcDbLine
 10
36.90733689833655
 20
65.49110889040822
 30
0.0
 11
51.90733689833653
 21
65.49110889040822
 31
0.0
  0
LINE
  5
19BD
330
19AC
100
AcDbEntity
  8
0
100
AcDbLine
 10
24.45733689833651
 20
60.92410889040866
 30
0.0
 11
51.47433689833656
 21
60.9241088904082
 31
0.0
  0
LINE
  5
19BE
330
19AC
100
AcDbEntity
  8
0
100
AcDbLine
 10
36.90733689833655
 20
61.3571088904082
 30
0.0
 11
51.90733689833653
 21
61.3571088904082
 31
0.0
  0
LINE
  5
19BF
330
19AC
100
AcDbEntity
  8
0
100
AcDbLine
 10
51.90733689833649
 20
65.49110889040822
 30
0.0
 11
51.47433689833651
 21
65.9241088904082
 31
0.0
  0
LINE
  5
19C0
330
19AC
100
AcDbEntity
  8
0
100
AcDbLine
 10
51.90733689833649
 20
61.3571088904082
 30
0.0
 11
51.47433689833651
 21
60.9241088904082
 31
0.0
  0
LINE
  5
19C1
330
19AC
100
AcDbEntity
  8
0
100
AcDbLine
 10
36.90733689833655
 20
65.49110889040822
 30
0.0
 11
36.47433689833656
 21
65.9241088904082
 31
0.0
  0
LINE
  5
19C2
330
19AC
100
AcDbEntity
  8
0
100
AcDbLine
 10
36.90733689833655
 20
61.3571088904082
 30
0.0
 11
36.47433689833656
 21
60.9241088904082
 31
0.0
  0
LINE
  5
19C3
330
19AC
100
AcDbEntity
  8
0
100
AcDbLine
 10
156.5611135170979
 20
-0.0000002996023341
 30
0.0
 11
159.1111135170979
 21
2.54999970039762
 31
0.0
  0
LINE
  5
19C4
330
19AC
100
AcDbEntity
  8
0
100
AcDbLine
 10
156.5611135170979
 20
11.09999970039757
 30
0.0
 11
159.1111135170979
 21
8.54999970039762
 31
0.0
  0
LINE
  5
19C5
330
19AC
100
AcDbEntity
  8
0
100
AcDbLine
 10
155.9861135170979
 20
-0.0000002996023341
 30
0.0
 11
155.9861135170979
 21
11.09999970039757
 31
0.0
  0
LINE
  5
19C6
330
19AC
100
AcDbEntity
  8
0
100
AcDbLine
 10
155.9861135170979
 20
11.09999970039757
 30
0.0
 11
156.5611135170979
 21
11.09999970039757
 31
0.0
  0
LINE
  5
19C7
330
19AC
100
AcDbEntity
  8
0
100
AcDbLine
 10
156.5611135170979
 20
11.09999970039757
 30
0.0
 11
156.5611135170979
 21
-0.0000002996023341
 31
0.0
  0
LINE
  5
19C8
330
19AC
100
AcDbEntity
  8
0
100
AcDbLine
 10
156.5611135170979
 20
-0.0000002996023341
 30
0.0
 11
155.9861135170979
 21
-0.0000002996023341
 31
0.0
  0
LINE
  5
19C9
330
19AC
100
AcDbEntity
  8
0
100
AcDbLine
 10
159.1111135170979
 20
8.54999970039762
 30
0.0
 11
159.1111135170979
 21
2.54999970039762
 31
0.0
  0
LINE
  5
19CA
330
19AC
100
AcDbEntity
  8
0
100
AcDbLine
 10
22.40733689833655
 20
58.87410889040825
 30
0.0
 11
24.45733689833651
 21
60.9241088904082
 31
0.0
  0
LINE
  5
19CB
330
19AC
100
AcDbEntity
  8
0
100
AcDbLine
 10
22.40733689833655
 20
67.97410889040815
 30
0.0
 11
24.45733689833651
 21
65.9241088904082
 31
0.0
  0
LINE
  5
19CC
330
19AC
100
AcDbEntity
  8
0
100
AcDbLine
 10
21.90733689833655
 20
58.87410889040825
 30
0.0
 11
21.90733689833655
 21
67.97410889040815
 31
0.0
  0
LINE
  5
19CD
330
19AC
100
AcDbEntity
  8
0
100
AcDbLine
 10
21.90733689833655
 20
67.97410889040815
 30
0.0
 11
22.40733689833655
 21
67.97410889040815
 31
0.0
  0
LINE
  5
19CE
330
19AC
100
AcDbEntity
  8
0
100
AcDbLine
 10
22.40733689833655
 20
67.97410889040815
 30
0.0
 11
22.40733689833655
 21
58.87410889040825
 31
0.0
  0
LINE
  5
19CF
330
19AC
100
AcDbEntity
  8
0
100
AcDbLine
 10
22.40733689833655
 20
58.87410889040825
 30
0.0
 11
21.90733689833655
 21
58.87410889040825
 31
0.0
  0
LINE
  5
19D0
330
19AC
100
AcDbEntity
  8
0
100
AcDbLine
 10
24.45733689833651
 20
65.9241088904082
 30
0.0
 11
24.45733689833651
 21
60.9241088904082
 31
0.0
  0
CIRCLE
  5
19D1
330
19AC
100
AcDbEntity
  8
0
100
AcDbCircle
 10
134.5500004706257
 20
5.549999700397846
 30
0.0
 40
5.549999999999998
  0
CIRCLE
  5
19D2
330
19AC
100
AcDbEntity
  8
0
100
AcDbCircle
 10
4.550000470625714
 20
63.4241088904082
 30
0.0
 40
4.549999999999998
  0
ARC
  5
19D3
330
19AC
100
AcDbEntity
  8
0
100
AcDbCircle
 10
134.5500004706257
 20
5.549999700397846
 30
0.0
 40
2.600014191177498
100
AcDbArc
 50
265.2474657628474
 51
274.7617746867514
  0
ARC
  5
19D4
330
19AC
100
AcDbEntity
  8
0
100
AcDbCircle
 10
134.344265018788
 20
3.075377582544888
 30
0.0
 40
0.11685457039
100
AcDbArc
 50
180.9999999999757
 51
265.2474657628409
  0
ARC
  5
19D5
330
19AC
100
AcDbEntity
  8
0
100
AcDbCircle
 10
134.7561350176105
 20
3.075410794973548
 30
0.0
 40
0.11685457039
100
AcDbArc
 50
274.7617746867643
 51
358.7790411291897
  0
ARC
  5
19D6
330
19AC
100
AcDbEntity
  8
0
100
AcDbCircle
 10
134.5500004706257
 20
5.549999700397846
 30
0.0
 40
2.600014191177498
100
AcDbArc
 50
355.2474657628471
 51
4.761774686745166
  0
ARC
  5
19D7
330
19AC
100
AcDbEntity
  8
0
100
AcDbCircle
 10
137.0246225884785
 20
5.34426424856019
 30
0.0
 40
0.11685457039
100
AcDbArc
 50
270.9999999999757
 51
355.2474657628732
  0
ARC
  5
19D8
330
19AC
100
AcDbEntity
  8
0
100
AcDbCircle
 10
137.0245893760499
 20
5.756134247382532
 30
0.0
 40
0.11685457039
100
AcDbArc
 50
4.761774686731913
 51
88.77904112912462
  0
ARC
  5
19D9
330
19AC
100
AcDbEntity
  8
0
100
AcDbCircle
 10
134.5500004706257
 20
5.549999700397846
 30
0.0
 40
2.600014191177498
100
AcDbArc
 50
85.24746576284739
 51
94.76177468674489
  0
ARC
  5
19DA
330
19AC
100
AcDbEntity
  8
0
100
AcDbCircle
 10
134.7557359224633
 20
8.024621818250807
 30
0.0
 40
0.11685457039
100
AcDbArc
 50
0.9999999999757104
 51
85.24746576284092
  0
ARC
  5
19DB
330
19AC
100
AcDbEntity
  8
0
100
AcDbCircle
 10
134.3438659236414
 20
8.024588605822144
 30
0.0
 40
0.11685457039
100
AcDbArc
 50
94.7617746867319
 51
178.7790411291245
  0
ARC
  5
19DC
330
19AC
100
AcDbEntity
  8
0
100
AcDbCircle
 10
134.5500004706257
 20
5.549999700397846
 30
0.0
 40
2.600014191177498
100
AcDbArc
 50
175.2474657628471
 51
184.7617746867451
  0
ARC
  5
19DD
330
19AC
100
AcDbEntity
  8
0
100
AcDbCircle
 10
132.0753783527728
 20
5.755735152235502
 30
0.0
 40
0.11685457039
100
AcDbArc
 50
90.99999999994315
 51
175.2474657628731
  0
ARC
  5
19DE
330
19AC
100
AcDbEntity
  8
0
100
AcDbCircle
 10
132.0754115652015
 20
5.343865153413162
 30
0.0
 40
0.11685457039
100
AcDbArc
 50
184.7617746867319
 51
268.7790411291572
  0
LINE
  5
19DF
330
19AC
100
AcDbEntity
  8
0
100
AcDbLine
 10
135.2688698051038
 20
6.268869034875932
 30
0.0
 11
134.8925355376027
 21
6.882990744221615
 31
0.0
  0
LINE
  5
19E0
330
19AC
100
AcDbEntity
  8
0
100
AcDbLine
 10
134.8725726953362
 20
8.026661211707276
 30
0.0
 11
134.8925355376027
 21
6.88299074422184
 31
0.0
  0
LINE
  5
19E1
330
19AC
100
AcDbEntity
  8
0
100
AcDbLine
 10
137.027079329543
 20
5.872962286622396
 30
0.0
 11
135.8748570470618
 21
5.897519575401246
 31
0.0
  0
LINE
  5
19E2
330
19AC
100
AcDbEntity
  8
0
100
AcDbLine
 10
135.2688698051038
 20
6.268869034875932
 30
0.0
 11
135.8748570470618
 21
5.897519575401246
 31
0.0
  0
LINE
  5
19E3
330
19AC
100
AcDbEntity
  8
0
100
AcDbLine
 10
133.8311311361477
 20
6.268869034875932
 30
0.0
 11
133.2170094268018
 21
5.892534767375082
 31
0.0
  0
LINE
  5
19E4
330
19AC
100
AcDbEntity
  8
0
100
AcDbLine
 10
132.0733389593165
 20
5.872571925108559
 30
0.0
 11
133.2170094268017
 21
5.892534767375082
 31
0.0
  0
LINE
  5
19E5
330
19AC
100
AcDbEntity
  8
0
100
AcDbLine
 10
134.2270378844013
 20
8.027078559315441
 30
0.0
 11
134.2024805956224
 21
6.874856276833952
 31
0.0
  0
LINE
  5
19E6
330
19AC
100
AcDbEntity
  8
0
100
AcDbLine
 10
133.8311311361477
 20
6.268869034875932
 30
0.0
 11
134.2024805956224
 21
6.874856276833952
 31
0.0
  0
LINE
  5
19E7
330
19AC
100
AcDbEntity
  8
0
100
AcDbLine
 10
133.8311311361477
 20
4.831130365919988
 30
0.0
 11
134.2074654036487
 21
4.21700865657408
 31
0.0
  0
LINE
  5
19E8
330
19AC
100
AcDbEntity
  8
0
100
AcDbLine
 10
134.2274282459152
 20
3.073338189088643
 30
0.0
 11
134.2074654036487
 21
4.217008656573852
 31
0.0
  0
LINE
  5
19E9
330
19AC
100
AcDbEntity
  8
0
100
AcDbLine
 10
132.0729216117083
 20
5.227037114173525
 30
0.0
 11
133.2251438941896
 21
5.202479825394448
 31
0.0
  0
LINE
  5
19EA
330
19AC
100
AcDbEntity
  8
0
100
AcDbLine
 10
133.8311311361477
 20
4.831130365919988
 30
0.0
 11
133.2251438941896
 21
5.202479825394448
 31
0.0
  0
LINE
  5
19EB
330
19AC
100
AcDbEntity
  8
0
100
AcDbLine
 10
135.2688698051038
 20
4.831130365919988
 30
0.0
 11
135.8829915144497
 21
5.20746463342084
 31
0.0
  0
LINE
  5
19EC
330
19AC
100
AcDbEntity
  8
0
100
AcDbLine
 10
137.0266619819349
 20
5.227427475687362
 30
0.0
 11
135.8829915144497
 21
5.20746463342084
 31
0.0
  0
LINE
  5
19ED
330
19AC
100
AcDbEntity
  8
0
100
AcDbLine
 10
134.8729630568501
 20
3.072920841480708
 30
0.0
 11
134.8975203456291
 21
4.22514312396197
 31
0.0
  0
LINE
  5
19EE
330
19AC
100
AcDbEntity
  8
0
100
AcDbLine
 10
135.2688698051038
 20
4.831130365919988
 30
0.0
 11
134.8975203456291
 21
4.22514312396197
 31
0.0
  0
ARC
  5
19EF
330
19AC
100
AcDbEntity
  8
0
100
AcDbCircle
 10
4.550000470625714
 20
63.4241088904082
 30
0.0
 40
2.30002455379944
100
AcDbArc
 50
265.2474657628474
 51
274.7617746867514
  0
ARC
  5
19F0
330
19AC
100
AcDbEntity
  8
0
100
AcDbCircle
 10
4.368002775221043
 20
61.235008672513
 30
0.0
 40
0.1033718900584018
100
AcDbArc
 50
180.9999999999757
 51
265.2474657628409
  0
ARC
  5
19F1
330
19AC
100
AcDbEntity
  8
0
100
AcDbCircle
 10
4.732351213579363
 20
61.23503805289168
 30
0.0
 40
0.1033718900584018
100
AcDbArc
 50
274.7617746867643
 51
358.7790411291897
  0
ARC
  5
19F2
330
19AC
100
AcDbEntity
  8
0
100
AcDbCircle
 10
4.550000470625714
 20
63.4241088904082
 30
0.0
 40
2.30002455379944
100
AcDbArc
 50
355.2474657628471
 51
4.761774686745166
  0
ARC
  5
19F3
330
19AC
100
AcDbEntity
  8
0
100
AcDbCircle
 10
6.739100688520692
 20
63.24211119500342
 30
0.0
 40
0.1033718900584018
100
AcDbArc
 50
270.9999999999757
 51
355.2474657628732
  0
ARC
  5
19F4
330
19AC
100
AcDbEntity
  8
0
100
AcDbCircle
 10
6.739071308142
 20
63.60645963336174
 30
0.0
 40
0.1033718900584018
100
AcDbArc
 50
4.761774686731913
 51
88.77904112912462
  0
ARC
  5
19F5
330
19AC
100
AcDbEntity
  8
0
100
AcDbCircle
 10
4.550000470625714
 20
63.4241088904082
 30
0.0
 40
2.30002455379944
100
AcDbArc
 50
85.24746576284739
 51
94.76177468674489
  0
ARC
  5
19F6
330
19AC
100
AcDbEntity
  8
0
100
AcDbCircle
 10
4.73199816603028
 20
65.61320910830318
 30
0.0
 40
0.1033718900584018
100
AcDbArc
 50
0.9999999999757104
 51
85.24746576284092
  0
ARC
  5
19F7
330
19AC
100
AcDbEntity
  8
0
100
AcDbCircle
 10
4.367649727672413
 20
65.61317972792449
 30
0.0
 40
0.1033718900584018
100
AcDbArc
 50
94.7617746867319
 51
178.7790411291245
  0
ARC
  5
19F8
330
19AC
100
AcDbEntity
  8
0
100
AcDbCircle
 10
4.550000470625714
 20
63.4241088904082
 30
0.0
 40
2.30002455379944
100
AcDbArc
 50
175.2474657628471
 51
184.7617746867451
  0
ARC
  5
19F9
330
19AC
100
AcDbEntity
  8
0
100
AcDbCircle
 10
2.360900252730743
 20
63.60610658581276
 30
0.0
 40
0.1033718900584018
100
AcDbArc
 50
90.99999999994315
 51
175.2474657628731
  0
ARC
  5
19FA
330
19AC
100
AcDbEntity
  8
0
100
AcDbCircle
 10
2.360929633109318
 20
63.24175814745443
 30
0.0
 40
0.1033718900584018
100
AcDbArc
 50
184.7617746867319
 51
268.7790411291572
  0
LINE
  5
19FB
330
19AC
100
AcDbEntity
  8
0
100
AcDbLine
 10
5.185926661291659
 20
64.06003508107414
 30
0.0
 11
4.853013841574917
 21
64.6032994275954
 31
0.0
  0
LINE
  5
19FC
330
19AC
100
AcDbEntity
  8
0
100
AcDbLine
 10
4.835354312049044
 20
65.61501319654258
 30
0.0
 11
4.853013841574917
 21
64.60329942759563
 31
0.0
  0
LINE
  5
19FD
330
19AC
100
AcDbEntity
  8
0
100
AcDbLine
 10
6.741273970801215
 20
63.70980805343402
 30
0.0
 11
5.721995095272633
 21
63.73153192223366
 31
0.0
  0
LINE
  5
19FE
330
19AC
100
AcDbEntity
  8
0
100
AcDbLine
 10
5.185926661291659
 20
64.06003508107414
 30
0.0
 11
5.721995095272633
 21
63.73153192223366
 31
0.0
  0
LINE
  5
19FF
330
19AC
100
AcDbEntity
  8
0
100
AcDbLine
 10
3.914074279959777
 20
64.06003508107414
 30
0.0
 11
3.370809933438181
 21
63.7271222613574
 31
0.0
  0
LINE
  5
1A00
330
19AC
100
AcDbEntity
  8
0
100
AcDbLine
 10
2.359096164491345
 20
63.70946273183176
 30
0.0
 11
3.370809933438066
 21
63.7271222613574
 31
0.0
  0
LINE
  5
1A01
330
19AC
100
AcDbEntity
  8
0
100
AcDbLine
 10
4.264301307599793
 20
65.61538239058382
 30
0.0
 11
4.242577438800251
 21
64.59610351505512
 31
0.0
  0
LINE
  5
1A02
330
19AC
100
AcDbEntity
  8
0
100
AcDbLine
 10
3.914074279959777
 20
64.06003508107414
 30
0.0
 11
4.242577438800251
 21
64.59610351505512
 31
0.0
  0
LINE
  5
1A03
330
19AC
100
AcDbEntity
  8
0
100
AcDbLine
 10
3.914074279959777
 20
62.78818269974227
 30
0.0
 11
4.246987099676513
 21
62.24491835322077
 31
0.0
  0
LINE
  5
1A04
330
19AC
100
AcDbEntity
  8
0
100
AcDbLine
 10
4.264646629202275
 20
61.23320458427382
 30
0.0
 11
4.246987099676513
 21
62.24491835322055
 31
0.0
  0
LINE
  5
1A05
330
19AC
100
AcDbEntity
  8
0
100
AcDbLine
 10
2.35872697045022
 20
63.1384097273824
 30
0.0
 11
3.378005845978805
 21
63.11668585858249
 31
0.0
  0
LINE
  5
1A06
330
19AC
100
AcDbEntity
  8
0
100
AcDbLine
 10
3.914074279959777
 20
62.78818269974227
 30
0.0
 11
3.378005845978805
 21
63.11668585858249
 31
0.0
  0
LINE
  5
1A07
330
19AC
100
AcDbEntity
  8
0
100
AcDbLine
 10
5.185926661291659
 20
62.78818269974227
 30
0.0
 11
5.729191007813253
 21
63.121095519459
 31
0.0
  0
LINE
  5
1A08
330
19AC
100
AcDbEntity
  8
0
100
AcDbLine
 10
6.740904776760089
 20
63.13875504898465
 30
0.0
 11
5.729191007813253
 21
63.121095519459
 31
0.0
  0
LINE
  5
1A09
330
19AC
100
AcDbEntity
  8
0
100
AcDbLine
 10
4.835699633651528
 20
61.23283539023282
 30
0.0
 11
4.857423502451183
 21
62.25211426576129
 31
0.0
  0
LINE
  5
1A0A
330
19AC
100
AcDbEntity
  8
0
100
AcDbLine
 10
5.185926661291659
 20
62.78818269974227
 30
0.0
 11
4.857423502451183
 21
62.25211426576129
 31
0.0
  0
LINE
  5
1A0B
330
19AC
100
AcDbEntity
  8
0
  6
HIDDEN
 48
0.1
100
AcDbLine
 10
155.9861135170979
 20
8.150013891575325
 30
0.0
 11
158.6861135170979
 21
6.815590776310044
 31
0.0
  0
LINE
  5
1A0C
330
19AC
100
AcDbEntity
  8
0
  6
HIDDEN
 48
0.1
100
AcDbLine
 10
155.9861135170979
 20
2.949985509219912
 30
0.0
 11
158.6861135170979
 21
4.284408624485195
 31
0.0
  0
LINE
  5
1A0D
330
19AC
100
AcDbEntity
  8
0
  6
HIDDEN
 48
0.1
100
AcDbLine
 10
158.6861135170979
 20
6.815590776310044
 30
0.0
 11
159.3590402287871
 21
5.54999970039762
 31
0.0
  0
LINE
  5
1A0E
330
19AC
100
AcDbEntity
  8
0
  6
HIDDEN
 48
0.1
100
AcDbLine
 10
158.6861135170979
 20
4.284408624485195
 30
0.0
 11
159.3590402287871
 21
5.54999970039762
 31
0.0
  0
LINE
  5
1A0F
330
19AC
100
AcDbEntity
  8
0
  6
HIDDEN
 48
0.1
100
AcDbLine
 10
21.9073368983365
 20
65.72413344420761
 30
0.0
 11
24.00733689833652
 21
64.68624879900129
 31
0.0
  0
LINE
  5
1A10
330
19AC
100
AcDbEntity
  8
0
  6
HIDDEN
 48
0.1
100
AcDbLine
 10
21.9073368983365
 20
61.12408433660835
 30
0.0
 11
24.00733689833652
 21
62.16196898181465
 31
0.0
  0
LINE
  5
1A11
330
19AC
100
AcDbEntity
  8
0
  6
HIDDEN
 48
0.1
100
AcDbLine
 10
24.00733689833652
 20
64.68624879900129
 30
0.0
 11
24.67842859181189
 21
63.42410889040797
 31
0.0
  0
LINE
  5
1A12
330
19AC
100
AcDbEntity
  8
0
  6
HIDDEN
 48
0.1
100
AcDbLine
 10
24.00733689833652
 20
62.16196898181465
 30
0.0
 11
24.67842859181189
 21
63.42410889040797
 31
0.0
  0
ENDBLK
  5
1A16
330
19AC
100
AcDbEntity
  8
0
100
AcDbBlockEnd
  0
BLOCK
  5
1BC8
330
1BBC
100
AcDbEntity
  8
0
100
AcDbBlockBegin
  2
*D11
 70
     1
 10
0.0
 20
0.0
 30
0.0
  3
*D11
  1

  0
LINE
  5
1C87
330
1BBC
100
AcDbEntity
  8
Dimension
 62
     0
370
    -2
100
AcDbLine
 10
393.2193028245652
 20
319.8147986507315
 30
0.0
 11
389.1307419088099
 21
323.9033595664866
 31
0.0
  0
LINE
  5
1C88
330
1BBC
100
AcDbEntity
  8
Dimension
 62
     0
370
    -2
100
AcDbLine
 10
393.2193028245652
 20
308.007691869545
 30
0.0
 11
389.1307419088102
 21
303.9191309537899
 31
0.0
  0
ARC
  5
1C89
330
1BBC
100
AcDbEntity
  8
Dimension
 62
     0
370
    -2
100
AcDbCircle
 10
399.1228562151584
 20
313.9112452601385
 30
0.0
 40
13.63098356882015
100
AcDbArc
 50
139.2042920560252
 51
220.7957079439769
  0
INSERT
  5
1C8A
330
1BBC
100
AcDbEntity
  8
Dimension
 62
     0
370
    -2
100
AcDbBlockReference
  2
_Open30
 10
389.4842952994031
 20
323.5498061758934
 30
0.0
 50
47.10214602801328
  0
INSERT
  5
1C8B
330
1BBC
100
AcDbEntity
  8
Dimension
 62
     0
370
    -2
100
AcDbBlockReference
  2
_Open30
 10
389.4842952994035
 20
304.2726843443832
 30
0.0
 50
312.8978539719887
  0
MTEXT
  5
1C8C
330
1BBC
100
AcDbEntity
  8
Dimension
 62
     0
100
AcDbMText
 10
384.3418726463383
 20
313.9112452601383
 30
0.0
 40
1.3
 41
0.0
 71
     5
 72
     1
  1
90°
  7
FontStyle1
 11
0.0000000000000001
 21
1.0
 31
0.0
 73
     1
 44
1.0
1001
ACAD
1000
MTEXTBEGIN
1070
    73
1070
     1
1070
    44
1040
1.0
1070
    74
1070
     0
1000
MTEXTEND
  0
POINT
  5
1C8D
330
1BBC
100
AcDbEntity
  8
Defpoints
 62
     0
100
AcDbPoint
 10
385.9563371483131
 20
317.4392034112284
 30
0.0
  0
POINT
  5
1C8E
330
1BBC
100
AcDbEntity
  8
Defpoints
 62
     0
100
AcDbPoint
 10
393.5728562151585
 20
319.4612452601382
 30
0.0
  0
POINT
  5
1C8F
330
1BBC
100
AcDbEntity
  8
Defpoints
 62
     0
100
AcDbPoint
 10
393.5728562151585
 20
308.3612452601383
 30
0.0
  0
POINT
  5
1C90
330
1BBC
100
AcDbEntity
  8
Defpoints
 62
     0
100
AcDbPoint
 10
396.1228562151585
 20
310.9112452601384
 30
0.0
  0
POINT
  5
1C91
330
1BBC
100
AcDbEntity
  8
Defpoints
 62
     0
100
AcDbPoint
 10
396.1228562151585
 20
316.9112452601384
 30
0.0
  0
ENDBLK
  5
1BC9
330
1BBC
100
AcDbEntity
  8
0
100
AcDbBlockEnd
  0
BLOCK
  5
1C16
330
1C0C
100
AcDbEntity
  8
0
100
AcDbBlockBegin
  2
*D12
 70
     1
 10
0.0
 20
0.0
 30
0.0
  3
*D12
  1

  0
LINE
  5
1C19
330
1C0C
100
AcDbEntity
  8
Dimension
 62
     0
370
    -2
100
AcDbLine
 10
432.9563562151584
 20
316.9112452601384
 30
0.0
 11
439.7425660600827
 21
316.9112452601384
 31
0.0
  0
LINE
  5
1C1A
330
1C0C
100
AcDbEntity
  8
Dimension
 62
     0
370
    -2
100
AcDbLine
 10
433.4978562151583
 20
325.2419445814892
 30
0.0
 11
439.7425660600827
 21
325.2419445814892
 31
0.0
  0
LINE
  5
1C1B
330
1C0C
100
AcDbEntity
  8
Dimension
 62
     0
370
    -2
100
AcDbLine
 10
439.2425660600827
 20
317.9112452601383
 30
0.0
 11
439.2425660600827
 21
324.2419445814892
 31
0.0
  0
INSERT
  5
1C1C
330
1C0C
100
AcDbEntity
  8
Dimension
 62
     0
370
    -2
100
AcDbBlockReference
  2
_Open30
 10
439.2425660600827
 20
316.9112452601384
 30
0.0
 50
270.0
  0
INSERT
  5
1C1D
330
1C0C
100
AcDbEntity
  8
Dimension
 62
     0
370
    -2
100
AcDbBlockReference
  2
_Open30
 10
439.2425660600827
 20
325.2419445814892
 30
0.0
 50
90.0
  0
MTEXT
  5
1C1E
330
1C0C
100
AcDbEntity
  8
Dimension
 62
     0
100
AcDbMText
 10
438.0925660600824
 20
321.0765949208138
 30
0.0
 40
1.3
 41
0.0
 71
     5
 72
     1
  1
8.33
  7
FontStyle1
 11
0.0000000000000001
 21
1.0
 31
0.0
 73
     1
 44
1.0
1001
ACAD
1000
MTEXTBEGIN
1070
    73
1070
     1
1070
    44
1040
1.0
1070
    74
1070
     0
1000
MTEXTEND
  0
POINT
  5
1C1F
330
1C0C
100
AcDbEntity
  8
Defpoints
 62
     0
100
AcDbPoint
 10
432.4563562151584
 20
316.9112452601384
 30
0.0
  0
POINT
  5
1C20
330
1C0C
100
AcDbEntity
  8
Defpoints
 62
     0
100
AcDbPoint
 10
432.9978562151583
 20
325.2419445814892
 30
0.0
  0
POINT
  5
1C21
330
1C0C
100
AcDbEntity
  8
Defpoints
 62
     0
100
AcDbPoint
 10
439.2425660600827
 20
325.2419445814892
 30
0.0
  0
ENDBLK
  5
1C17
330
1C0C
100
AcDbEntity
  8
0
100
AcDbBlockEnd
  0
BLOCK
  5
1D23
330
1D19
100
AcDbEntity
  8
0
100
AcDbBlockBegin
  2
*D13
 70
     1
 10
0.0
 20
0.0
 30
0.0
  3
*D13
  1

  0
LINE
  5
1EC6
330
1D19
100
AcDbEntity
  8
Dimension
 62
     0
370
    -2
100
AcDbLine
 10
391.7228562151585
 20
314.4112452601385
 30
0.0
 11
391.7228562151585
 21
327.4112452601384
 31
0.0
  0
LINE
  5
1EC7
330
1D19
100
AcDbEntity
  8
Dimension
 62
     0
370
    -2
100
AcDbLine
 10
396.1228562151585
 20
320.3112452601384
 30
0.0
 11
396.1228562151585
 21
327.4112452601384
 31
0.0
  0
LINE
  5
1EC8
330
1D19
100
AcDbEntity
  8
Dimension
 62
     0
370
    -2
100
AcDbLine
 10
392.7228562151585
 20
326.9112452601384
 30
0.0
 11
395.1228562151584
 21
326.9112452601384
 31
0.0
  0
INSERT
  5
1EC9
330
1D19
100
AcDbEntity
  8
Dimension
 62
     0
370
    -2
100
AcDbBlockReference
  2
_Open30
 10
391.7228562151585
 20
326.9112452601384
 30
0.0
 50
180.0
  0
INSERT
  5
1ECA
330
1D19
100
AcDbEntity
  8
Dimension
 62
     0
370
    -2
100
AcDbBlockReference
  2
_Open30
 10
396.1228562151585
 20
326.9112452601384
 30
0.0
  0
MTEXT
  5
1ECB
330
1D19
100
AcDbEntity
  8
Dimension
 62
     0
100
AcDbMText
 10
393.9228562151584
 20
328.0612452601383
 30
0.0
 40
1.3
 41
0.0
 71
     5
 72
     1
  1
4.4
  7
FontStyle1
 73
     1
 44
1.0
1001
ACAD
1000
MTEXTBEGIN
1070
    73
1070
     1
1070
    44
1040
1.0
1070
    74
1070
     0
1000
MTEXTEND
  0
POINT
  5
1ECC
330
1D19
100
AcDbEntity
  8
Defpoints
 62
     0
100
AcDbPoint
 10
391.7228562151585
 20
313.9112452601385
 30
0.0
  0
POINT
  5
1ECD
330
1D19
100
AcDbEntity
  8
Defpoints
 62
     0
100
AcDbPoint
 10
396.1228562151585
 20
319.8112452601384
 30
0.0
  0
POINT
  5
1ECE
330
1D19
100
AcDbEntity
  8
Defpoints
 62
     0
100
AcDbPoint
 10
396.1228562151585
 20
326.9112452601384
 30
0.0
  0
ENDBLK
  5
1D24
330
1D19
100
AcDbEntity
  8
0
100
AcDbBlockEnd
  0
ENDSEC
  0
SECTION
  2
ENTITIES
  0
DIMENSION
  5
13BB
330
1F
100
AcDbEntity
  8
Dimension
100
AcDbDimension
  2
*D4
 10
377.4617431686862
 20
326.9112452601384
 30
0.0
 11
371.5617431686862
 21
326.9112452601384
 31
0.0
 70
   160
 71
     5
 42
11.79999999999995
  3
DimStyle1
100
AcDbAlignedDimension
 13
365.6617431686862
 23
313.9112452601385
 33
0.0
 14
377.4617431686862
 24
313.9112452601385
 34
0.0
100
AcDbRotatedDimension
  0
DIMENSION
  5
144F
330
1F
100
AcDbEntity
  8
Dimension
100
AcDbDimension
  2
*D6
 10
436.1228562151583
 20
326.9112452601384
 30
0.0
 11
416.1228562151583
 21
326.9112452601384
 31
0.0
 70
   160
 71
     5
 42
39.99999999999989
  3
DimStyle1
100
AcDbAlignedDimension
 13
396.1228562151585
 23
319.8112452601384
 33
0.0
 14
436.1228562151583
 24
316.3697452601383
 34
0.0
100
AcDbRotatedDimension
  0
DIMENSION
  5
1467
330
1F
100
AcDbEntity
  8
Dimension
100
AcDbDimension
  2
*D7
 10
436.1228562151583
 20
321.9112452601383
 30
0.0
 11
428.6228562151584
 21
321.9112452601383
 31
0.0
 70
   160
 71
     5
 42
15.0
  3
DimStyle1
100
AcDbAlignedDimension
 13
421.1228562151584
 23
316.9112452601384
 33
0.0
 14
436.1228562151583
 24
316.3697452601383
 34
0.0
100
AcDbRotatedDimension
  0
LINE
  5
1519
330
1F
100
AcDbEntity
  8
Center
 48
4.0
100
AcDbLine
 10
371.5617431686862
 20
322.2362452601385
 30
0.0
 11
371.5617431686862
 21
305.5862452601385
 31
0.0
  0
LINE
  5
151A
330
1F
100
AcDbEntity
  8
Center
 48
4.0
100
AcDbLine
 10
363.2367431686863
 20
313.9112452601385
 30
0.0
 11
379.8867431686862
 21
313.9112452601385
 31
0.0
  0
LINE
  5
151D
330
1F
100
AcDbEntity
  8
Center
 48
4.0
100
AcDbLine
 10
387.9978562151584
 20
313.9112452601385
 30
0.0
 11
440.07087619608
 21
313.9112452601385
 31
0.0
  0
LEADER
  5
1776
330
1F
100
AcDbEntity
  8
Dimension
100
AcDbLeader
  3
DimStyle1
 73
     0
 40
1.199999999999999
 41
2.114285714285712
 76
     3
 10
428.6736657521068
 20
310.8463922902719
 30
0.0
 10
433.5690861578902
 20
305.9509718844883
 30
0.0
 10
435.6352137995874
 20
305.9509718844883
 30
0.0
340
1777
213
-0.1623821126199232
223
-0.730614579745657
233
0.0
1001
ACAD
1000
DSTYLE
1002
{
1070
   147
1040
0.3
1070
    77
1070
     0
1002
}
  0
MTEXT
  5
1777
102
{ACAD_REACTORS
330
1776
102
}
330
1F
100
AcDbEntity
  8
Dimension
100
AcDbMText
 10
436.0975959122074
 20
306.681586464234
 30
0.0
 40
1.199999999999999
 41
2.520732211899201
 71
     1
 72
     1
  1
M6
  7
FontStyle1
 73
     1
 44
1.0
1001
ACAD
1000
MTEXTBEGIN
1070
    73
1070
     1
1070
    44
1040
1.0
1070
    74
1070
     0
1000
MTEXTEND
  0
DIMENSION
  5
1D18
330
1F
100
AcDbEntity
  8
Dimension
100
AcDbDimension
  2
*D13
 10
396.1228562151585
 20
326.9112452601384
 30
0.0
 11
393.9228562151584
 21
328.0612452601383
 31
0.0
 70
    32
 71
     5
 42
4.399999999999976
  3
DimStyle1
100
AcDbAlignedDimension
 13
391.7228562151585
 23
313.9112452601385
 33
0.0
 14
396.1228562151585
 24
319.8112452601384
 34
0.0
100
AcDbRotatedDimension
  0
ARC
  5
1DCA
330
1F
100
AcDbEntity
  8
OutlineB
100
AcDbCircle
 10
396.5228562151584
 20
317.3112452601384
 30
0.0
 40
0.4
100
AcDbArc
 50
180.0
 51
270.0
  0
LINE
  5
1DCB
330
1F
100
AcDbEntity
  8
OutlineB
100
AcDbLine
 10
436.1228562151583
 20
316.3697452601383
 30
0.0
 11
436.1228562151583
 21
311.4527452601383
 31
0.0
  0
LINE
  5
1DCC
330
1F
100
AcDbEntity
  8
OutlineN
100
AcDbLine
 10
421.1228562151584
 20
316.911245260138
 30
0.0
 11
421.1228562151584
 21
310.911245260138
 31
0.0
  0
LINE
  5
1DCD
330
1F
100
AcDbEntity
  8
OutlineN
100
AcDbLine
 10
435.5813562151584
 20
316.9112452601384
 30
0.0
 11
435.5813562151584
 21
310.9112452601384
 31
0.0
  0
LINE
  5
1DCE
330
1F
100
AcDbEntity
  8
OutlineB
100
AcDbLine
 10
396.5228562151584
 20
310.9112452601384
 30
0.0
 11
435.5813562151584
 21
310.9112452601384
 31
0.0
  0
LINE
  5
1DCF
330
1F
100
AcDbEntity
  8
OutlineN
100
AcDbLine
 10
421.1228562151584
 20
311.4527452601383
 30
0.0
 11
436.1228562151583
 21
311.4527452601383
 31
0.0
  0
LINE
  5
1DD0
330
1F
100
AcDbEntity
  8
OutlineB
100
AcDbLine
 10
396.5228562151584
 20
316.9112452601384
 30
0.0
 11
435.5813562151584
 21
316.9112452601384
 31
0.0
  0
LINE
  5
1DD1
330
1F
100
AcDbEntity
  8
OutlineN
100
AcDbLine
 10
421.1228562151584
 20
316.369745260138
 30
0.0
 11
436.1228562151583
 21
316.3697452601383
 31
0.0
  0
LINE
  5
1DD2
330
1F
100
AcDbEntity
  8
OutlineB
100
AcDbLine
 10
436.1228562151583
 20
316.3697452601383
 30
0.0
 11
435.5813562151584
 21
316.9112452601384
 31
0.0
  0
LINE
  5
1DD3
330
1F
100
AcDbEntity
  8
OutlineB
100
AcDbLine
 10
436.1228562151583
 20
311.4527452601383
 30
0.0
 11
435.5813562151584
 21
310.9112452601385
 31
0.0
  0
LINE
  5
1DD4
330
1F
100
AcDbEntity
  8
OutlineN
100
AcDbLine
 10
421.1228562151584
 20
316.369745260138
 30
0.0
 11
420.5813562151583
 21
316.911245260138
 31
0.0
  0
LINE
  5
1DD5
330
1F
100
AcDbEntity
  8
OutlineN
100
AcDbLine
 10
421.1228562151584
 20
311.4527452601381
 30
0.0
 11
420.5813562151583
 21
310.9112452601384
 31
0.0
  0
ARC
  5
1DD6
330
1F
100
AcDbEntity
  8
OutlineB
100
AcDbCircle
 10
396.5228562151584
 20
310.5112452601382
 30
0.0
 40
0.4
100
AcDbArc
 50
90.0
 51
180.0
  0
LINE
  5
1E9F
330
1F
100
AcDbEntity
  8
0
100
AcDbLine
 10
396.1228562151585
 20
319.8112452601382
 30
0.0
 11
396.1228562151585
 21
308.011245260138
 31
0.0
  0
LINE
  5
1EA0
330
1F
100
AcDbEntity
  8
OutlineB
100
AcDbLine
 10
396.1228562151585
 20
319.8112452601382
 30
0.0
 11
394.0708162404903
 21
319.6317150252529
 31
0.0
  0
LINE
  5
1EA1
330
1F
100
AcDbEntity
  8
OutlineB
100
AcDbLine
 10
396.1228562151585
 20
308.011245260138
 30
0.0
 11
394.0708162404902
 21
308.1907754950236
 31
0.0
  0
ARC
  5
1EA2
330
1F
100
AcDbEntity
  8
OutlineB
100
AcDbCircle
 10
401.7228562151585
 20
313.9112452601381
 30
0.0
 40
10.0
100
AcDbArc
 50
149.0554252347838
 51
210.9445747652133
  0
ARC
  5
1EA3
330
1F
100
AcDbEntity
  8
OutlineB
100
AcDbCircle
 10
394.1754031317875
 20
318.4362813875428
 30
0.0
 40
1.199999999999999
100
AcDbArc
 50
94.99999999999323
 51
149.0554252347866
  0
ARC
  5
1EA4
330
1F
100
AcDbEntity
  8
OutlineB
100
AcDbCircle
 10
394.1754031317874
 20
309.3862091327336
 30
0.0
 40
1.199999999999999
100
AcDbArc
 50
210.9445747652133
 51
264.999999999997
  0
CIRCLE
  5
1EA5
330
1F
100
AcDbEntity
  8
OutlineB
100
AcDbCircle
 10
371.5617431686862
 20
313.9112452601385
 30
0.0
 40
5.9
  0
ARC
  5
1EA6
330
1F
100
AcDbEntity
  8
OutlineN
100
AcDbCircle
 10
371.5617431686862
 20
313.9112452601385
 30
0.0
 40
2.449993372346558
100
AcDbArc
 50
265.2474657628471
 51
274.7617746867516
  0
ARC
  5
1EA7
330
1F
100
AcDbEntity
  8
OutlineN
100
AcDbCircle
 10
371.3678786524197
 20
311.5794088384856
 30
0.0
 40
0.110112061678497
100
AcDbArc
 50
180.9999999999757
 51
265.2474657628403
  0
ARC
  5
1EA8
330
1F
100
AcDbEntity
  8
OutlineN
100
AcDbCircle
 10
371.7559837523101
 20
311.5794401345571
 30
0.0
 40
0.110112061678497
100
AcDbArc
 50
274.7617746867647
 51
358.7790411291897
  0
ARC
  5
1EA9
330
1F
100
AcDbEntity
  8
OutlineN
100
AcDbCircle
 10
371.5617431686862
 20
313.9112452601385
 30
0.0
 40
2.449993372346558
100
AcDbArc
 50
355.2474657628471
 51
4.761774686745166
  0
ARC
  5
1EAA
330
1F
100
AcDbEntity
  8
OutlineN
100
AcDbCircle
 10
373.8935795903389
 20
313.7173807438717
 30
0.0
 40
0.110112061678497
100
AcDbArc
 50
270.9999999999757
 51
355.2474657628732
  0
ARC
  5
1EAB
330
1F
100
AcDbEntity
  8
OutlineN
100
AcDbCircle
 10
373.8935482942673
 20
314.1054858437621
 30
0.0
 40
0.110112061678497
100
AcDbArc
 50
4.761774686731913
 51
88.77904112912457
  0
ARC
  5
1EAC
330
1F
100
AcDbEntity
  8
OutlineN
100
AcDbCircle
 10
371.5617431686862
 20
313.9112452601385
 30
0.0
 40
2.449993372346558
100
AcDbArc
 50
85.24746576284714
 51
94.76177468674514
  0
ARC
  5
1EAD
330
1F
100
AcDbEntity
  8
OutlineN
100
AcDbCircle
 10
371.7556076849529
 20
316.2430816817912
 30
0.0
 40
0.110112061678497
100
AcDbArc
 50
0.9999999999757104
 51
85.24746576284037
  0
ARC
  5
1EAE
330
1F
100
AcDbEntity
  8
OutlineN
100
AcDbCircle
 10
371.3675025850629
 20
316.2430503857198
 30
0.0
 40
0.110112061678497
100
AcDbArc
 50
94.7617746867319
 51
178.7790411291245
  0
ARC
  5
1EAF
330
1F
100
AcDbEntity
  8
OutlineN
100
AcDbCircle
 10
371.5617431686862
 20
313.9112452601385
 30
0.0
 40
2.449993372346558
100
AcDbArc
 50
175.2474657628471
 51
184.7617746867451
  0
ARC
  5
1EB0
330
1F
100
AcDbEntity
  8
OutlineN
100
AcDbCircle
 10
369.2299067470334
 20
314.1051097764052
 30
0.0
 40
0.110112061678497
100
AcDbArc
 50
90.99999999994315
 51
175.2474657628731
  0
ARC
  5
1EB1
330
1F
100
AcDbEntity
  8
OutlineN
100
AcDbCircle
 10
369.229938043105
 20
313.7170046765148
 30
0.0
 40
0.110112061678497
100
AcDbArc
 50
184.7617746867319
 51
268.7790411291571
  0
LINE
  5
1EB2
330
1F
100
AcDbEntity
  8
OutlineN
100
AcDbLine
 10
372.2391337425648
 20
314.5886358340172
 30
0.0
 11
371.8845139622987
 21
315.1673227207337
 31
0.0
  0
LINE
  5
1EB3
330
1F
100
AcDbEntity
  8
OutlineN
100
AcDbLine
 10
371.8657029760309
 20
316.2450034022452
 30
0.0
 11
371.8845139622987
 21
315.1673227207337
 31
0.0
  0
LINE
  5
1EB4
330
1F
100
AcDbEntity
  8
OutlineN
100
AcDbLine
 10
373.895894577444
 20
314.2155729051379
 30
0.0
 11
372.810155520662
 21
314.2387132383543
 31
0.0
  0
LINE
  5
1EB5
330
1F
100
AcDbEntity
  8
OutlineN
100
AcDbLine
 10
372.2391337425648
 20
314.5886358340172
 30
0.0
 11
372.810155520662
 21
314.2387132383543
 31
0.0
  0
LINE
  5
1EB6
330
1F
100
AcDbEntity
  8
OutlineN
100
AcDbLine
 10
370.8843525948076
 20
314.5886358340172
 30
0.0
 11
370.3056657080909
 21
314.2340160537511
 31
0.0
  0
LINE
  5
1EB7
330
1F
100
AcDbEntity
  8
OutlineN
100
AcDbLine
 10
369.2279850265796
 20
314.2152050674834
 30
0.0
 11
370.3056657080909
 21
314.2340160537511
 31
0.0
  0
LINE
  5
1EB8
330
1F
100
AcDbEntity
  8
OutlineN
100
AcDbLine
 10
371.2574155236869
 20
316.2453966688967
 30
0.0
 11
371.2342751904707
 21
315.1596576121142
 31
0.0
  0
LINE
  5
1EB9
330
1F
100
AcDbEntity
  8
OutlineN
100
AcDbLine
 10
370.8843525948076
 20
314.5886358340172
 30
0.0
 11
371.2342751904707
 21
315.1596576121142
 31
0.0
  0
LINE
  5
1EBA
330
1F
100
AcDbEntity
  8
OutlineN
100
AcDbLine
 10
370.8843525948076
 20
313.23385468626
 30
0.0
 11
371.2389723750738
 21
312.6551677995433
 31
0.0
  0
LINE
  5
1EBB
330
1F
100
AcDbEntity
  8
OutlineN
100
AcDbLine
 10
371.2577833613415
 20
311.5774871180318
 30
0.0
 11
371.2389723750738
 21
312.6551677995431
 31
0.0
  0
LINE
  5
1EBC
330
1F
100
AcDbEntity
  8
OutlineN
100
AcDbLine
 10
369.2275917599284
 20
313.6069176151394
 30
0.0
 11
370.3133308167104
 21
313.5837772819228
 31
0.0
  0
LINE
  5
1EBD
330
1F
100
AcDbEntity
  8
OutlineN
100
AcDbLine
 10
370.8843525948076
 20
313.23385468626
 30
0.0
 11
370.3133308167104
 21
313.5837772819228
 31
0.0
  0
LINE
  5
1EBE
330
1F
100
AcDbEntity
  8
OutlineN
100
AcDbLine
 10
372.2391337425648
 20
313.23385468626
 30
0.0
 11
372.8178206292816
 21
313.588474466526
 31
0.0
  0
LINE
  5
1EBF
330
1F
100
AcDbEntity
  8
OutlineN
100
AcDbLine
 10
373.8955013107928
 20
313.6072854527939
 30
0.0
 11
372.8178206292816
 21
313.588474466526
 31
0.0
  0
LINE
  5
1EC0
330
1F
100
AcDbEntity
  8
OutlineN
100
AcDbLine
 10
371.8660708136856
 20
311.5770938513809
 30
0.0
 11
371.8892111469019
 21
312.662832908163
 31
0.0
  0
LINE
  5
1EC1
330
1F
100
AcDbEntity
  8
OutlineN
100
AcDbLine
 10
372.2391337425648
 20
313.23385468626
 30
0.0
 11
371.8892111469019
 21
312.662832908163
 31
0.0
  0
LINE
  5
1EC2
330
1F
100
AcDbEntity
  8
Hidden
  6
HIDDEN
 48
3.0
100
AcDbLine
 10
392.027623754023
 20
316.3612386324851
 30
0.0
 11
393.4417986485255
 21
315.6623098664658
 31
0.0
  0
LINE
  5
1EC3
330
1F
100
AcDbEntity
  8
Hidden
  6
HIDDEN
 48
3.0
100
AcDbLine
 10
393.4417986485255
 20
315.6623098664658
 30
0.0
 11
394.3728562151584
 21
313.9112452601383
 31
0.0
  0
LINE
  5
1EC4
330
1F
100
AcDbEntity
  8
Hidden
  6
HIDDEN
 48
3.0
100
AcDbLine
 10
392.027623754023
 20
311.4612518877915
 30
0.0
 11
393.4417986485257
 21
312.1601806538107
 31
0.0
  0
LINE
  5
1EC5
330
1F
100
AcDbEntity
  8
Hidden
  6
HIDDEN
 48
3.0
100
AcDbLine
 10
393.4417986485257
 20
312.1601806538107
 30
0.0
 11
394.3728562151584
 21
313.9112452601383
 31
0.0
  0
CIRCLE
  5
1F15
330
1F
100
AcDbEntity
  8
OutlineN
100
AcDbCircle
 10
371.5617431686862
 20
313.9112452601385
 30
0.0
 40
0.3
  0
LINE
  5
1F16
330
1F
100
AcDbEntity
  8
Hidden
 48
3.0
100
AcDbLine
 10
394.2133433856599
 20
314.2112452601385
 30
0.0
 11
436.1228562151583
 21
314.2112452601385
 31
0.0
  0
LINE
  5
1F17
330
1F
100
AcDbEntity
  8
Hidden
 48
3.0
100
AcDbLine
 10
394.2133433856601
 20
313.6112452601385
 30
0.0
 11
436.1228562151581
 21
313.6112452601385
 31
0.0
  0
VIEWPORT
  5
3A8
102
{ACAD_XDICTIONARY
360
1F94
102
}
330
58
100
AcDbEntity
 67
     1
  8
0
100
AcDbViewport
 10
137.7062428507872
 20
99.20625429619065
 30
0.0
 40
326.5989231098436
 41
211.5411666272288
 68
     1
 69
     1
 12
137.7062428507872
 22
99.20625429619065
 13
0.0
 23
0.0
 14
10.0
 24
10.0
 15
10.0
 25
10.0
 16
0.0
 26
0.0
 36
1.0
 17
0.0
 27
0.0
 37
0.0
 42
50.0
 43
0.0
 44
0.0
 45
211.5411666272288
 50
0.0
 51
0.0
 72
  1000
 90
   557088
  1

281
     0
 71
     1
 74
     0
110
0.0
120
0.0
130
0.0
111
1.0
121
0.0
131
0.0
112
0.0
122
1.0
132
0.0
 79
     0
146
0.0
  0
VIEWPORT
  5
3AB
102
{ACAD_XDICTIONARY
360
1F96
102
}
330
58
100
AcDbEntity
 67
     1
  8
0
100
AcDbViewport
 10
137.7062371894978
 20
99.20625082247916
 30
0.0
 40
266.9999999999999
 41
180.0
 68
     2
 69
     2
 12
397.2168495971906
 22
313.9112452844713
 13
0.0
 23
0.0
 14
0.5
 24
0.5
 15
0.5
 25
0.5
 16
0.0
 26
0.0
 36
1.0
 17
0.0
 27
0.0
 37
0.0
 42
50.0
 43
0.0
 44
0.0
 45
89.99999995809075
 50
0.0
 51
0.0
 72
  1000
 90
   557152
  1

281
     0
 71
     1
 74
     0
110
0.0
120
0.0
130
0.0
111
1.0
121
0.0
131
0.0
112
0.0
122
1.0
132
0.0
 79
     0
146
0.0
  0
INSERT
  5
130D
330
58
100
AcDbEntity
 67
     1
  8
0
100
AcDbBlockReference
  2
A4横（ねじ）
 10
-10.79376281050213
 20
-5.793749177520852
 30
0.0
  0
MTEXT
  5
1311
330
58
100
AcDbEntity
 67
     1
  8
0
100
AcDbMText
 10
206.2491735410364
 20
39.20625082247914
 30
0.0
 40
2.5
 41
20.45706364846147
 71
     4
 72
     5
  1
{\fMS PGothic|b0|i0|c128|p50;ANSHM06-40}
  7
FontStyle1
 73
     1
 44
1.0
1001
ACAD
1000
MTEXTBEGIN
1070
    73
1070
     1
1070
    44
1040
1.0
1070
    74
1070
     0
1000
MTEXTEND
1000
ACAD_MTEXT_DEFINED_HEIGHT_BEGIN
1070
    46
1040
10.00000000000001
1000
ACAD_MTEXT_DEFINED_HEIGHT_END
  0
MTEXT
  5
1319
330
58
100
AcDbEntity
 67
     1
  8
0
100
AcDbMText
 10
206.2491735410364
 20
29.20625082247913
 30
0.0
 40
2.5
 41
20.45706364846147
 71
     4
 72
     5
  1
{\fMS PGothic|b0|i0|c128|p50;ZNSHM06-40}
  7
FontStyle1
 73
     1
 44
1.0
1001
ACAD
1000
MTEXTBEGIN
1070
    73
1070
     1
1070
    44
1040
1.0
1070
    74
1070
     0
1000
MTEXTEND
1000
ACAD_MTEXT_DEFINED_HEIGHT_BEGIN
1070
    46
1040
10.00000000000003
1000
ACAD_MTEXT_DEFINED_HEIGHT_END
  0
MTEXT
  5
131A
330
58
100
AcDbEntity
 67
     1
  8
0
100
AcDbMText
 10
186.2543342992238
 20
31.70625082247916
 30
0.0
 40
2.0
 41
30.09619421945212
 71
     5
 72
     5
  1
{\fMS PGothic|b0|i0|c128|p50;2 : 1 (A4)}
  7
FontStyle1
 73
     1
 44
1.0
1001
ACAD
1000
MTEXTBEGIN
1070
    73
1070
     1
1070
    44
1040
1.0
1070
    74
1070
     0
1000
MTEXTEND
1000
ACAD_MTEXT_DEFINED_HEIGHT_BEGIN
1070
    46
1040
5.000000000000011
1000
ACAD_MTEXT_DEFINED_HEIGHT_END
  0
MTEXT
  5
1322
330
58
100
AcDbEntity
 67
     1
  8
0
100
AcDbMText
 10
186.2543342992238
 20
26.70625082247916
 30
0.0
 40
1.5
 41
30.09619421945212
 71
     5
 72
     5
  1
{\fMS PGothic|b0|i0|c128|p50;W.O. 2011.11.17}
  7
FontStyle1
 73
     1
 44
1.0
1001
ACAD
1000
MTEXTBEGIN
1070
    73
1070
     1
1070
    44
1040
1.0
1070
    74
1070
     0
1000
MTEXTEND
1000
ACAD_MTEXT_DEFINED_HEIGHT_BEGIN
1070
    46
1040
5.000000000000011
1000
ACAD_MTEXT_DEFINED_HEIGHT_END
  0
MTEXT
  5
1F03
330
58
100
AcDbEntity
 67
     1
  8
Dimension
100
AcDbMText
 10
171.2062371894978
 20
54.20625082247916
 30
0.0
 40
2.0
 41
100.0
 71
     1
 72
     5
  1
※ 現物のガス穴の径および位置はラフになります。
  7
FontStyle1
 73
     1
 44
1.0
1001
ACAD
1000
MTEXTBEGIN
1070
    73
1070
     1
1070
    44
1040
1.0
1070
    74
1070
     0
1000
MTEXTEND
  0
MTEXT
  5
1F04
102
{ACAD_XDICTIONARY
360
1F98
102
}
330
58
100
AcDbEntity
 67
     1
  8
0
100
AcDbMText
 10
231.7062371894979
 20
39.20625082247915
 30
0.0
 40
1.6
 41
39.49999999999992
 71
     4
 72
     5
  1
{\fMS PGothic|b0|i0|c128|p50;ナベ頭ねじガス穴付き　M6x40L\Pアルミナ　Al\H0.75x;2\H1.333x;O\H0.75x;3}
  7
FontStyle1
 73
     1
 44
1.0
1001
ACAD
1000
MTEXTBEGIN
1070
    73
1070
     1
1070
    44
1040
1.0
1070
    74
1070
     0
1000
MTEXTEND
1000
ACAD_MTEXT_DEFINED_HEIGHT_BEGIN
1070
    46
1040
10.0
1000
ACAD_MTEXT_DEFINED_HEIGHT_END
  0
MTEXT
  5
1F05
102
{ACAD_XDICTIONARY
360
1F9A
102
}
330
58
100
AcDbEntity
 67
     1
  8
0
100
AcDbMText
 10
231.7062371894979
 20
29.20625082247916
 30
0.0
 40
1.6
 41
39.49999999999992
 71
     4
 72
     5
  1
{\fMS PGothic|b0|i0|c128|p50;ナベ頭ねじガス穴付き　M6x40L\Pジルコニア　ZrO\H0.75x;2}
  7
FontStyle1
 73
     1
 44
1.0
1001
ACAD
1000
MTEXTBEGIN
1070
    73
1070
     1
1070
    44
1040
1.0
1070
    74
1070
     0
1000
MTEXTEND
1000
ACAD_MTEXT_DEFINED_HEIGHT_BEGIN
1070
    46
1040
9.999999999999984
1000
ACAD_MTEXT_DEFINED_HEIGHT_END
  0
ENDSEC
  0
SECTION
  2
OBJECTS
  0
DICTIONARY
  5
C
330
0
100
AcDbDictionary
281
     1
  3
ACAD_COLOR
350
73
  3
ACAD_GROUP
350
D
  3
ACAD_LAYOUT
350
1A
  3
ACAD_MATERIAL
350
72
  3
ACAD_MLINESTYLE
350
17
  3
ACAD_PLOTSETTINGS
350
19
  3
ACAD_PLOTSTYLENAME
350
E
  3
ACAD_TABLESTYLE
350
86
  3
ACAD_VISUALSTYLE
350
99
  3
AcadDim
350
14C0
  3
AcDbVariableDictionary
350
66
  3
DWGPROPS
350
1F8E
  0
DICTIONARY
  5
3AF
330
2
100
AcDbDictionary
280
     1
281
     1
  3
ACAD_LAYERFILTERS
360
B06
  3
ACAD_LAYERSTATES
360
3B0
  3
ACLYDICTIONARY
360
B05
  0
DICTIONARY
  5
CB
330
1F
100
AcDbDictionary
280
     1
281
     1
  3
ACAD_SORTENTS
360
CC
  0
DICTIONARY
  5
130F
330
58
100
AcDbDictionary
280
     1
281
     1
  3
ACAD_SORTENTS
360
1310
  0
DICTIONARY
  5
10BC
330
8AB
100
AcDbDictionary
280
     1
281
     1
  0
DICTIONARY
  5
1A13
330
19AC
100
AcDbDictionary
280
     1
281
     1
  3
ACAD_SORTENTS
360
1A14
  0
DICTIONARY
  5
12F7
330
BDB
100
AcDbDictionary
280
     1
281
     1
  0
DICTIONARY
  5
1F94
330
3A8
100
AcDbDictionary
280
     1
281
     1
  3
ACAD_XREC_ROUNDTRIP
360
1F95
  0
DICTIONARY
  5
1F96
330
3AB
100
AcDbDictionary
280
     1
281
     1
  3
ACAD_XREC_ROUNDTRIP
360
1F97
  0
DICTIONARY
  5
1F98
330
1F04
100
AcDbDictionary
280
     1
281
     1
  3
ACAD_MTEXT_RT
360
1F99
  0
DICTIONARY
  5
1F9A
330
1F05
100
AcDbDictionary
280
     1
281
     1
  3
ACAD_MTEXT_RT
360
1F9B
  0
DICTIONARY
  5
73
102
{ACAD_REACTORS
330
C
102
}
330
C
100
AcDbDictionary
281
     1
  0
DICTIONARY
  5
D
102
{ACAD_REACTORS
330
C
102
}
330
C
100
AcDbDictionary
281
     1
  3
*A1
350
173
  3
*A10
350
33D
  3
*A11
350
25A
  3
*A12
350
17FE
  3
*A13
350
17FC
  3
*A14
350
89F
  3
*A15
350
18FD
  3
*A16
350
18FE
  3
*A17
350
17FD
  3
*A18
350
280
  3
*A19
350
15AA
  3
*A2
350
15AD
  3
*A20
350
15AB
  3
*A21
350
33C
  3
*A22
350
3BA
  3
*A23
350
3E2
  3
*A24
350
15AC
  3
*A25
350
15AE
  3
*A26
350
18FF
  3
*A27
350
177
  3
*A28
350
16C7
  3
*A29
350
16C8
  3
*A3
350
16C9
  3
*A30
350
341
  3
*A31
350
8AA
  3
*A32
350
3E1
  3
*A33
350
1A83
  3
*A34
350
19C
  3
*A35
350
197
  3
*A36
350
1A84
  3
*A4
350
192
  3
*A5
350
189
  3
*A6
350
18F
  3
*A7
350
336
  3
*A8
350
281
  3
*A9
350
18E
  0
DICTIONARY
  5
1A
102
{ACAD_REACTORS
330
C
102
}
330
C
100
AcDbDictionary
281
     1
  3
Model
350
22
  3
レイアウト1
350
59
  0
DICTIONARY
  5
72
102
{ACAD_REACTORS
330
C
102
}
330
C
100
AcDbDictionary
281
     1
  3
ByBlock
350
97
  3
ByLayer
350
96
  3
Global
350
98
  0
DICTIONARY
  5
17
102
{ACAD_REACTORS
330
C
102
}
330
C
100
AcDbDictionary
281
     1
  3
Standard
350
18
  0
DICTIONARY
  5
19
102
{ACAD_REACTORS
330
C
102
}
330
C
100
AcDbDictionary
281
     1
  0
ACDBDICTIONARYWDFLT
  5
E
102
{ACAD_REACTORS
330
C
102
}
330
C
100
AcDbDictionary
281
     1
  3
Normal
350
F
100
AcDbDictionaryWithDefault
340
F
  0
DICTIONARY
  5
86
102
{ACAD_REACTORS
330
C
102
}
330
C
100
AcDbDictionary
281
     1
  3
Standard
350
87
  0
DICTIONARY
  5
99
102
{ACAD_REACTORS
330
C
102
}
330
C
100
AcDbDictionary
281
     1
  3
2dWireframe
350
9F
  3
3D Hidden
350
A1
  3
3dWireframe
350
A0
  3
Basic
350
9E
  3
Brighten
350
A5
  3
ColorChange
350
A9
  3
Conceptual
350
A2
  3
Dim
350
A4
  3
Facepattern
350
A8
  3
Flat
350
9A
  3
FlatWithEdges
350
9B
  3
Gouraud
350
9C
  3
GouraudWithEdges
350
9D
  3
Linepattern
350
A7
  3
Realistic
350
A3
  3
Thicken
350
A6
  0
XRECORD
  5
14C0
102
{ACAD_REACTORS
330
C
102
}
330
C
100
AcDbXrecord
280
     1
 90
   990106
  3

 60
     0
 61
     0
 62
     1
 63
     3
 64
     0
 65
     0
 66
     0
 67
     3
 68
     1
 69
     0
 70
     0
 71
     0
 72
     0
 40
1.0
170
     0
340
1777
  0
DICTIONARY
  5
66
102
{ACAD_REACTORS
330
C
102
}
330
C
100
AcDbDictionary
281
     1
  3
CTABLESTYLE
350
89
  3
DIMASSOC
350
67
  3
HIDETEXT
350
6B
  3
INDEXCTL
350
1D63
  3
LOFTANG1
350
1F8C
  3
LOFTANG2
350
1F8D
  3
SORTENTS
350
1D62
  0
XRECORD
  5
1F8E
102
{ACAD_REACTORS
330
C
102
}
330
C
100
AcDbXrecord
280
     1
  1
DWGPROPS COOKIE
  2

  3

  4

  6

  7

  8
K079
  9

300
=
301
=
302
=
303
=
304
=
305
=
306
=
307
=
308
=
309
=
 40
0.7505118865740741
 41
2455622.734854733
 42
2455884.454599919
  1

 90
        0
  0
DICTIONARY
  5
B06
102
{ACAD_REACTORS
330
3AF
102
}
330
3AF
100
AcDbDictionary
281
     1
  0
DICTIONARY
  5
3B0
102
{ACAD_REACTORS
330
3AF
102
}
330
3AF
100
AcDbDictionary
281
     1
  0
DICTIONARY
  5
B05
102
{ACAD_REACTORS
330
3AF
102
}
330
3AF
100
AcDbDictionary
281
     1
1001
ACAD
1000
<All
  0
SORTENTSTABLE
  5
CC
102
{ACAD_REACTORS
330
CB
102
}
330
CB
100
AcDbSortentsTable
330
1F
331
1777
  5
1777
331
151D
  5
151D
331
1467
  5
14C2
331
1519
  5
151B
331
144F
  5
14C1
331
1776
  5
1776
331
151A
  5
151C
331
13BB
  5
147F
  0
SORTENTSTABLE
  5
1310
102
{ACAD_REACTORS
330
130F
102
}
330
130F
100
AcDbSortentsTable
330
58
331
3A8
  5
3A8
331
130D
  5
3AB
331
3AB
  5
130D
  0
SORTENTSTABLE
  5
1A14
102
{ACAD_REACTORS
330
1A13
102
}
330
1A13
100
AcDbSortentsTable
330
19AC
  0
XRECORD
  5
1F95
102
{ACAD_REACTORS
330
1F94
102
}
330
1F94
100
AcDbXrecord
280
     1
102
SHADEPLOT
 70
     0
  0
XRECORD
  5
1F97
102
{ACAD_REACTORS
330
1F96
102
}
330
1F96
100
AcDbXrecord
280
     1
102
SHADEPLOT
 70
     0
  0
XRECORD
  5
1F99
102
{ACAD_REACTORS
330
1F98
102
}
330
1F98
100
AcDbXrecord
280
     1
 40
181220.0
  1
{\fMS PGothic|b0|i0|c128|p50;ナベ頭ねじガス穴付き　M6x40L^Jアルミナ　Al\H0.75x;2\H1.333x;O\H0.75x;3}
  0
XRECORD
  5
1F9B
102
{ACAD_REACTORS
330
1F9A
102
}
330
1F9A
100
AcDbXrecord
280
     1
 40
69909.0
  1
{\fMS PGothic|b0|i0|c128|p50;ナベ頭ねじガス穴付き　M6x40L^Jジルコニア　ZrO\H0.75x;2}
  0
GROUP
  5
173
102
{ACAD_REACTORS
330
D
102
}
330
D
100
AcDbGroup
300

 70
     1
 71
     1
  0
GROUP
  5
33D
102
{ACAD_REACTORS
330
D
102
}
330
D
100
AcDbGroup
300

 70
     1
 71
     1
  0
GROUP
  5
25A
102
{ACAD_REACTORS
330
D
102
}
330
D
100
AcDbGroup
300

 70
     1
 71
     1
  0
GROUP
  5
17FE
102
{ACAD_REACTORS
330
D
102
}
330
D
100
AcDbGroup
300

 70
     1
 71
     1
  0
GROUP
  5
17FC
102
{ACAD_REACTORS
330
D
102
}
330
D
100
AcDbGroup
300

 70
     1
 71
     1
  0
GROUP
  5
89F
102
{ACAD_REACTORS
330
D
102
}
330
D
100
AcDbGroup
300

 70
     1
 71
     1
  0
GROUP
  5
18FD
102
{ACAD_REACTORS
330
D
102
}
330
D
100
AcDbGroup
300

 70
     1
 71
     1
  0
GROUP
  5
18FE
102
{ACAD_REACTORS
330
D
102
}
330
D
100
AcDbGroup
300

 70
     1
 71
     1
  0
GROUP
  5
17FD
102
{ACAD_REACTORS
330
D
102
}
330
D
100
AcDbGroup
300

 70
     1
 71
     1
  0
GROUP
  5
280
102
{ACAD_REACTORS
330
D
102
}
330
D
100
AcDbGroup
300

 70
     1
 71
     1
  0
GROUP
  5
15AA
102
{ACAD_REACTORS
330
D
102
}
330
D
100
AcDbGroup
300

 70
     1
 71
     1
  0
GROUP
  5
15AD
102
{ACAD_REACTORS
330
D
102
}
330
D
100
AcDbGroup
300

 70
     1
 71
     1
  0
GROUP
  5
15AB
102
{ACAD_REACTORS
330
D
102
}
330
D
100
AcDbGroup
300

 70
     1
 71
     1
  0
GROUP
  5
33C
102
{ACAD_REACTORS
330
D
102
}
330
D
100
AcDbGroup
300

 70
     1
 71
     1
  0
GROUP
  5
3BA
102
{ACAD_REACTORS
330
D
102
}
330
D
100
AcDbGroup
300

 70
     1
 71
     1
  0
GROUP
  5
3E2
102
{ACAD_REACTORS
330
D
102
}
330
D
100
AcDbGroup
300

 70
     1
 71
     1
  0
GROUP
  5
15AC
102
{ACAD_REACTORS
330
D
102
}
330
D
100
AcDbGroup
300

 70
     1
 71
     1
  0
GROUP
  5
15AE
102
{ACAD_REACTORS
330
D
102
}
330
D
100
AcDbGroup
300

 70
     1
 71
     1
  0
GROUP
  5
18FF
102
{ACAD_REACTORS
330
D
102
}
330
D
100
AcDbGroup
300

 70
     1
 71
     1
  0
GROUP
  5
177
102
{ACAD_REACTORS
330
D
102
}
330
D
100
AcDbGroup
300

 70
     1
 71
     1
  0
GROUP
  5
16C7
102
{ACAD_REACTORS
330
D
102
}
330
D
100
AcDbGroup
300

 70
     1
 71
     1
  0
GROUP
  5
16C8
102
{ACAD_REACTORS
330
D
102
}
330
D
100
AcDbGroup
300

 70
     1
 71
     1
  0
GROUP
  5
16C9
102
{ACAD_REACTORS
330
D
102
}
330
D
100
AcDbGroup
300

 70
     1
 71
     1
  0
GROUP
  5
341
102
{ACAD_REACTORS
330
D
102
}
330
D
100
AcDbGroup
300

 70
     1
 71
     1
  0
GROUP
  5
8AA
102
{ACAD_REACTORS
330
D
102
}
330
D
100
AcDbGroup
300

 70
     1
 71
     1
  0
GROUP
  5
3E1
102
{ACAD_REACTORS
330
D
102
}
330
D
100
AcDbGroup
300

 70
     1
 71
     1
  0
GROUP
  5
1A83
102
{ACAD_REACTORS
330
D
102
}
330
D
100
AcDbGroup
300

 70
     1
 71
     1
  0
GROUP
  5
19C
102
{ACAD_REACTORS
330
D
102
}
330
D
100
AcDbGroup
300

 70
     1
 71
     1
  0
GROUP
  5
197
102
{ACAD_REACTORS
330
D
102
}
330
D
100
AcDbGroup
300

 70
     1
 71
     1
  0
GROUP
  5
1A84
102
{ACAD_REACTORS
330
D
102
}
330
D
100
AcDbGroup
300

 70
     1
 71
     1
  0
GROUP
  5
192
102
{ACAD_REACTORS
330
D
102
}
330
D
100
AcDbGroup
300

 70
     1
 71
     1
  0
GROUP
  5
189
102
{ACAD_REACTORS
330
D
102
}
330
D
100
AcDbGroup
300

 70
     1
 71
     1
  0
GROUP
  5
18F
102
{ACAD_REACTORS
330
D
102
}
330
D
100
AcDbGroup
300

 70
     1
 71
     1
  0
GROUP
  5
336
102
{ACAD_REACTORS
330
D
102
}
330
D
100
AcDbGroup
300

 70
     1
 71
     1
  0
GROUP
  5
281
102
{ACAD_REACTORS
330
D
102
}
330
D
100
AcDbGroup
300

 70
     1
 71
     1
  0
GROUP
  5
18E
102
{ACAD_REACTORS
330
D
102
}
330
D
100
AcDbGroup
300

 70
     1
 71
     1
  0
LAYOUT
  5
22
102
{ACAD_XDICTIONARY
360
1F8F
102
}
102
{ACAD_REACTORS
330
1A
102
}
330
1A
100
AcDbPlotSettings
  1

  2
none_device
  4
ISO_A4_(210.00_x_297.00_MM)
  6

 40
7.5
 41
20.0
 42
7.5
 43
20.0
 44
210.0
 45
297.0
 46
0.0
 47
0.0
 48
0.0
 49
0.0
140
0.0
141
0.0
142
1.0
143
1.420208019955029
 70
 11920
 72
     1
 73
     1
 74
     0
  7

 75
     0
147
0.7041222031908151
148
30.0011951563871
149
2.955441623215733
100
AcDbLayout
  1
Model
 70
     1
 71
     0
 10
0.0
 20
0.0
 11
12.0
 21
9.0
 12
0.0
 22
0.0
 32
0.0
 14
0.0
 24
0.0
 34
0.0
 15
0.0
 25
0.0
 35
0.0
146
0.0
 13
0.0
 23
0.0
 33
0.0
 16
1.0
 26
0.0
 36
0.0
 17
0.0
 27
1.0
 37
0.0
 76
     0
330
1F
331
94
1001
ACAD_PSEXT
1000
なし
1000
なし
1000
適切ではありません
1000
新しいプロッタ環境設定名を選択しない限り、レイアウトは印刷されません。
1070
     0
  0
LAYOUT
  5
59
102
{ACAD_XDICTIONARY
360
3B2
102
}
102
{ACAD_REACTORS
330
1A
102
}
330
1A
100
AcDbPlotSettings
  1

  2
DWG To PDF.pc3
  4
ISO_expand_A4_(210.00_x_297.00_MM)
  6

 40
5.793749809265136
 41
10.79374980926513
 42
5.793746948242187
 43
10.79376220703125
 44
210.0
 45
297.0
 46
0.0
 47
0.0
 48
0.0
 49
0.0
140
0.0
141
0.0
142
1.0
143
1.0
 70
   640
 72
     1
 73
     1
 74
     5
  7

 75
    16
147
25.4
148
0.0
149
0.0
100
AcDbLayout
  1
レイアウト1
 70
     1
 71
     1
 10
-10.79376220703125
 20
-5.793749809265136
 11
286.2062377929687
 21
204.2062501907349
 12
0.0
 22
0.0
 32
0.0
 14
-10.79828699466236
 24
-5.796948727361268
 34
-0.0000000000000052
 15
286.210772696237
 25
204.2094573197426
 35
0.00000000000001
146
0.0
 13
0.0
 23
0.0
 33
0.0
 16
1.0
 26
0.0
 36
0.0
 17
0.0
 27
1.0
 37
0.0
 76
     0
330
58
331
3A8
1001
ACAD_PSEXT
1000
DWG To PDF.pc3
1000
PDF
1000
ファイル
1000

1070
     0
  0
MATERIAL
  5
97
102
{ACAD_XDICTIONARY
360
1D6E
102
}
102
{ACAD_REACTORS
330
72
102
}
330
72
100
AcDbMaterial
  1
ByBlock
  0
MATERIAL
  5
96
102
{ACAD_XDICTIONARY
360
1D6C
102
}
102
{ACAD_REACTORS
330
72
102
}
330
72
100
AcDbMaterial
  1
ByLayer
  0
MATERIAL
  5
98
102
{ACAD_XDICTIONARY
360
1D70
102
}
102
{ACAD_REACTORS
330
72
102
}
330
72
100
AcDbMaterial
  1
Global
  0
MLINESTYLE
  5
18
102
{ACAD_REACTORS
330
17
102
}
330
17
100
AcDbMlineStyle
  2
STANDARD
 70
     0
  3

 62
   256
 51
90.0
 52
90.0
 71
     2
 49
0.5
 62
   256
  6
BYLAYER
 49
-0.5
 62
   256
  6
BYLAYER
  0
ACDBPLACEHOLDER
  5
F
102
{ACAD_REACTORS
330
E
102
}
330
E
  0
TABLESTYLE
  5
87
102
{ACAD_XDICTIONARY
360
1F92
102
}
102
{ACAD_REACTORS
330
86
102
}
330
86
100
AcDbTableStyle
  3
Standard
 70
     0
 71
     0
 40
0.06
 41
0.06
280
     0
281
     0
  7
Standard
140
0.18
170
     2
 62
     0
 63
     7
283
     0
274
    -2
284
     1
 64
     0
275
    -2
285
     1
 65
     0
276
    -2
286
     1
 66
     0
277
    -2
287
     1
 67
     0
278
    -2
288
     1
 68
     0
279
    -2
289
     1
 69
     0
  7
Standard
140
0.25
170
     5
 62
     0
 63
     7
283
     0
274
    -2
284
     1
 64
     0
275
    -2
285
     1
 65
     0
276
    -2
286
     1
 66
     0
277
    -2
287
     1
 67
     0
278
    -2
288
     1
 68
     0
279
    -2
289
     1
 69
     0
  7
Standard
140
0.18
170
     5
 62
     0
 63
     7
283
     0
274
    -2
284
     1
 64
     0
275
    -2
285
     1
 65
     0
276
    -2
286
     1
 66
     0
277
    -2
287
     1
 67
     0
278
    -2
288
     1
 68
     0
279
    -2
289
     1
 69
     0
  0
VISUALSTYLE
  5
9F
102
{ACAD_REACTORS
330
99
102
}
330
99
100
AcDbVisualStyle
  2
2dWireframe
 70
     4
 71
     0
 72
     2
 73
     1
 90
        0
 40
-0.6
 41
-30.0
 62
     5
 63
     7
 74
     1
 91
        4
 64
     7
 65
   257
 75
     1
175
     1
 42
1.0
 92
        0
 66
   257
 43
1.0
 76
     1
 77
     6
 78
     2
 67
     7
 79
     5
170
     0
171
     0
290
     0
174
     0
 93
        1
 44
0.0
173
     0
291
     0
 45
0.0
1001
ACAD
1000
AcDbSavedByObjectVersion
1070
     0
1000
AcDbSavedByObjectVersion
1070
     0
1000
AcDbSavedByObjectVersion
1070
     0
1000
AcDbSavedByObjectVersion
1070
     0
1000
AcDbSavedByObjectVersion
1070
     0
1000
AcDbSavedByObjectVersion
1070
     0
1000
AcDbSavedByObjectVersion
1070
     0
  0
VISUALSTYLE
  5
A1
102
{ACAD_REACTORS
330
99
102
}
330
99
100
AcDbVisualStyle
  2
3D Hidden
 70
     6
 71
     1
 72
     2
 73
     2
 90
        0
 40
-0.6
 41
-30.0
 62
     5
 63
     7
 74
     2
 91
        2
 64
     7
 65
   257
 75
     2
175
     1
 42
40.0
 92
        0
 66
   257
 43
1.0
 76
     1
 77
     6
 78
     2
 67
     7
 79
     3
170
     0
171
     0
290
     0
174
     0
 93
        1
 44
0.0
173
     0
291
     0
 45
0.0
1001
ACAD
1000
AcDbSavedByObjectVersion
1070
     0
1000
AcDbSavedByObjectVersion
1070
     0
1000
AcDbSavedByObjectVersion
1070
     0
1000
AcDbSavedByObjectVersion
1070
     0
1000
AcDbSavedByObjectVersion
1070
     0
1000
AcDbSavedByObjectVersion
1070
     0
1000
AcDbSavedByObjectVersion
1070
     0
  0
VISUALSTYLE
  5
A0
102
{ACAD_REACTORS
330
99
102
}
330
99
100
AcDbVisualStyle
  2
3dWireframe
 70
     5
 71
     0
 72
     2
 73
     1
 90
        0
 40
-0.6
 41
-30.0
 62
     5
 63
     7
 74
     1
 91
        4
 64
     7
 65
   257
 75
     1
175
     1
 42
1.0
 92
        0
 66
   257
 43
1.0
 76
     1
 77
     6
 78
     2
 67
     7
 79
     5
170
     0
171
     0
290
     0
174
     0
 93
        1
 44
0.0
173
     0
291
     0
 45
0.0
1001
ACAD
1000
AcDbSavedByObjectVersion
1070
     0
1000
AcDbSavedByObjectVersion
1070
     0
1000
AcDbSavedByObjectVersion
1070
     0
1000
AcDbSavedByObjectVersion
1070
     0
1000
AcDbSavedByObjectVersion
1070
     0
1000
AcDbSavedByObjectVersion
1070
     0
1000
AcDbSavedByObjectVersion
1070
     0
  0
VISUALSTYLE
  5
9E
102
{ACAD_REACTORS
330
99
102
}
330
99
100
AcDbVisualStyle
  2
Basic
 70
     7
 71
     1
 72
     0
 73
     1
 90
        0
 40
-0.6
 41
-30.0
 62
     5
 63
     7
 74
     0
 91
        4
 64
     7
 65
   257
 75
     1
175
     1
 42
1.0
 92
        8
 66
     7
 43
1.0
 76
     1
 77
     6
 78
     2
 67
     7
 79
     5
170
     0
171
     0
290
     0
174
     0
 93
        1
 44
0.0
173
     0
291
     1
 45
0.0
1001
ACAD
1000
AcDbSavedByObjectVersion
1070
     0
1000
AcDbSavedByObjectVersion
1070
     0
1000
AcDbSavedByObjectVersion
1070
     0
1000
AcDbSavedByObjectVersion
1070
     0
1000
AcDbSavedByObjectVersion
1070
     0
1000
AcDbSavedByObjectVersion
1070
     0
1000
AcDbSavedByObjectVersion
1070
     0
  0
VISUALSTYLE
  5
A5
102
{ACAD_REACTORS
330
99
102
}
330
99
100
AcDbVisualStyle
  2
Brighten
 70
    12
 71
     2
 72
     2
 73
     1
 90
        0
 40
-0.6
 41
-30.0
 62
     5
 63
     7
 74
     1
 91
        4
 64
     7
 65
   257
 75
     1
175
     1
 42
1.0
 92
        8
 66
     7
 43
1.0
 76
     1
 77
     6
 78
     2
 67
     7
 79
     5
170
     0
171
     0
290
     0
174
     0
 93
        1
 44
50.0
173
     0
291
     1
 45
0.0
1001
ACAD
1000
AcDbSavedByObjectVersion
1070
     0
1000
AcDbSavedByObjectVersion
1070
     0
1000
AcDbSavedByObjectVersion
1070
     0
1000
AcDbSavedByObjectVersion
1070
     0
1000
AcDbSavedByObjectVersion
1070
     0
1000
AcDbSavedByObjectVersion
1070
     0
1000
AcDbSavedByObjectVersion
1070
     0
  0
VISUALSTYLE
  5
A9
102
{ACAD_REACTORS
330
99
102
}
330
99
100
AcDbVisualStyle
  2
ColorChange
 70
    16
 71
     2
 72
     2
 73
     3
 90
        0
 40
-0.6
 41
-30.0
 62
     5
 63
     8
 74
     1
 91
        4
 64
     7
 65
   257
 75
     1
175
     1
 42
1.0
 92
        8
 66
     8
 43
1.0
 76
     1
 77
     6
 78
     2
 67
     7
 79
     5
170
     0
171
     0
290
     0
174
     0
 93
        1
 44
0.0
173
     0
291
     1
 45
0.0
1001
ACAD
1000
AcDbSavedByObjectVersion
1070
     0
1000
AcDbSavedByObjectVersion
1070
     0
1000
AcDbSavedByObjectVersion
1070
     0
1000
AcDbSavedByObjectVersion
1070
     0
1000
AcDbSavedByObjectVersion
1070
     0
1000
AcDbSavedByObjectVersion
1070
     0
1000
AcDbSavedByObjectVersion
1070
     0
  0
VISUALSTYLE
  5
A2
102
{ACAD_REACTORS
330
99
102
}
330
99
100
AcDbVisualStyle
  2
Conceptual
 70
     9
 71
     3
 72
     2
 73
     1
 90
        0
 40
-0.6
 41
-30.0
 62
     5
 63
     7
 74
     2
 91
        2
 64
     7
 65
   257
 75
     1
175
     1
 42
40.0
 92
        8
 66
     7
 43
1.0
 76
     1
 77
     6
 78
     2
 67
     7
 79
     3
170
     0
171
     0
290
     0
174
     0
 93
        1
 44
0.0
173
     0
291
     0
 45
0.0
1001
ACAD
1000
AcDbSavedByObjectVersion
1070
     0
1000
AcDbSavedByObjectVersion
1070
     0
1000
AcDbSavedByObjectVersion
1070
     0
1000
AcDbSavedByObjectVersion
1070
     0
1000
AcDbSavedByObjectVersion
1070
     0
1000
AcDbSavedByObjectVersion
1070
     0
1000
AcDbSavedByObjectVersion
1070
     0
  0
VISUALSTYLE
  5
A4
102
{ACAD_REACTORS
330
99
102
}
330
99
100
AcDbVisualStyle
  2
Dim
 70
    11
 71
     2
 72
     2
 73
     1
 90
        0
 40
-0.6
 41
-30.0
 62
     5
 63
     7
 74
     1
 91
        4
 64
     7
 65
   257
 75
     1
175
     1
 42
1.0
 92
        8
 66
     7
 43
1.0
 76
     1
 77
     6
 78
     2
 67
     7
 79
     5
170
     0
171
     0
290
     0
174
     0
 93
        1
 44
-50.0
173
     0
291
     1
 45
0.0
1001
ACAD
1000
AcDbSavedByObjectVersion
1070
     0
1000
AcDbSavedByObjectVersion
1070
     0
1000
AcDbSavedByObjectVersion
1070
     0
1000
AcDbSavedByObjectVersion
1070
     0
1000
AcDbSavedByObjectVersion
1070
     0
1000
AcDbSavedByObjectVersion
1070
     0
1000
AcDbSavedByObjectVersion
1070
     0
  0
VISUALSTYLE
  5
A8
102
{ACAD_REACTORS
330
99
102
}
330
99
100
AcDbVisualStyle
  2
Facepattern
 70
    15
 71
     2
 72
     2
 73
     1
 90
        0
 40
-0.6
 41
-30.0
 62
     5
 63
     7
 74
     1
 91
        4
 64
     7
 65
   257
 75
     1
175
     1
 42
1.0
 92
        8
 66
     7
 43
1.0
 76
     1
 77
     6
 78
     2
 67
     7
 79
     5
170
     0
171
     0
290
     0
174
     0
 93
        1
 44
0.0
173
     0
291
     1
 45
0.0
1001
ACAD
1000
AcDbSavedByObjectVersion
1070
     0
1000
AcDbSavedByObjectVersion
1070
     0
1000
AcDbSavedByObjectVersion
1070
     0
1000
AcDbSavedByObjectVersion
1070
     0
1000
AcDbSavedByObjectVersion
1070
     0
1000
AcDbSavedByObjectVersion
1070
     0
1000
AcDbSavedByObjectVersion
1070
     0
  0
VISUALSTYLE
  5
9A
102
{ACAD_REACTORS
330
99
102
}
330
99
100
AcDbVisualStyle
  2
Flat
 70
     0
 71
     2
 72
     1
 73
     1
 90
        2
 40
-0.6
 41
30.0
 62
     5
 63
     7
 74
     0
 91
        4
 64
     7
 65
   257
 75
     1
175
     1
 42
1.0
 92
        8
 66
     7
 43
1.0
 76
     1
 77
     6
 78
     2
 67
     7
 79
     5
170
     0
171
     0
290
     0
174
     0
 93
        1
 44
0.0
173
     0
291
     1
 45
0.0
1001
ACAD
1000
AcDbSavedByObjectVersion
1070
     0
1000
AcDbSavedByObjectVersion
1070
     0
1000
AcDbSavedByObjectVersion
1070
     0
1000
AcDbSavedByObjectVersion
1070
     0
1000
AcDbSavedByObjectVersion
1070
     0
1000
AcDbSavedByObjectVersion
1070
     0
1000
AcDbSavedByObjectVersion
1070
     0
  0
VISUALSTYLE
  5
9B
102
{ACAD_REACTORS
330
99
102
}
330
99
100
AcDbVisualStyle
  2
FlatWithEdges
 70
     1
 71
     2
 72
     1
 73
     1
 90
        2
 40
-0.6
 41
30.0
 62
     5
 63
     7
 74
     1
 91
        4
 64
     7
 65
   257
 75
     1
175
     1
 42
1.0
 92
        0
 66
   257
 43
1.0
 76
     1
 77
     6
 78
     2
 67
     7
 79
     5
170
     0
171
     0
290
     0
174
     0
 93
        1
 44
0.0
173
     0
291
     1
 45
0.0
1001
ACAD
1000
AcDbSavedByObjectVersion
1070
     0
1000
AcDbSavedByObjectVersion
1070
     0
1000
AcDbSavedByObjectVersion
1070
     0
1000
AcDbSavedByObjectVersion
1070
     0
1000
AcDbSavedByObjectVersion
1070
     0
1000
AcDbSavedByObjectVersion
1070
     0
1000
AcDbSavedByObjectVersion
1070
     0
  0
VISUALSTYLE
  5
9C
102
{ACAD_REACTORS
330
99
102
}
330
99
100
AcDbVisualStyle
  2
Gouraud
 70
     2
 71
     2
 72
     2
 73
     1
 90
        2
 40
-0.6
 41
30.0
 62
     5
 63
     7
 74
     0
 91
        4
 64
     7
 65
   257
 75
     1
175
     1
 42
1.0
 92
        0
 66
     7
 43
1.0
 76
     1
 77
     6
 78
     2
 67
     7
 79
     5
170
     0
171
     0
290
     0
174
     0
 93
        1
 44
0.0
173
     0
291
     1
 45
0.0
1001
ACAD
1000
AcDbSavedByObjectVersion
1070
     0
1000
AcDbSavedByObjectVersion
1070
     0
1000
AcDbSavedByObjectVersion
1070
     0
1000
AcDbSavedByObjectVersion
1070
     0
1000
AcDbSavedByObjectVersion
1070
     0
1000
AcDbSavedByObjectVersion
1070
     0
1000
AcDbSavedByObjectVersion
1070
     0
  0
VISUALSTYLE
  5
9D
102
{ACAD_REACTORS
330
99
102
}
330
99
100
AcDbVisualStyle
  2
GouraudWithEdges
 70
     3
 71
     2
 72
     2
 73
     1
 90
        2
 40
-0.6
 41
30.0
 62
     5
 63
     7
 74
     1
 91
        4
 64
     7
 65
   257
 75
     1
175
     1
 42
1.0
 92
        0
 66
   257
 43
1.0
 76
     1
 77
     6
 78
     2
 67
     7
 79
     5
170
     0
171
     0
290
     0
174
     0
 93
        1
 44
0.0
173
     0
291
     1
 45
0.0
1001
ACAD
1000
AcDbSavedByObjectVersion
1070
     0
1000
AcDbSavedByObjectVersion
1070
     0
1000
AcDbSavedByObjectVersion
1070
     0
1000
AcDbSavedByObjectVersion
1070
     0
1000
AcDbSavedByObjectVersion
1070
     0
1000
AcDbSavedByObjectVersion
1070
     0
1000
AcDbSavedByObjectVersion
1070
     0
  0
VISUALSTYLE
  5
A7
102
{ACAD_REACTORS
330
99
102
}
330
99
100
AcDbVisualStyle
  2
Linepattern
 70
    14
 71
     2
 72
     2
 73
     1
 90
        0
 40
-0.6
 41
-30.0
 62
     5
 63
     7
 74
     1
 91
        4
 64
     7
 65
   257
 75
     7
175
     7
 42
1.0
 92
        8
 66
     7
 43
1.0
 76
     1
 77
     6
 78
     2
 67
     7
 79
     5
170
     0
171
     0
290
     0
174
     0
 93
        1
 44
0.0
173
     0
291
     1
 45
0.0
1001
ACAD
1000
AcDbSavedByObjectVersion
1070
     0
1000
AcDbSavedByObjectVersion
1070
     0
1000
AcDbSavedByObjectVersion
1070
     0
1000
AcDbSavedByObjectVersion
1070
     0
1000
AcDbSavedByObjectVersion
1070
     0
1000
AcDbSavedByObjectVersion
1070
     0
1000
AcDbSavedByObjectVersion
1070
     0
  0
VISUALSTYLE
  5
A3
102
{ACAD_REACTORS
330
99
102
}
330
99
100
AcDbVisualStyle
  2
Realistic
 70
     8
 71
     2
 72
     2
 73
     1
 90
        0
 40
-0.6
 41
-30.0
 62
     5
 63
     7
 74
     1
 91
        0
 64
     7
 65
   257
 75
     1
175
     1
 42
1.0
 92
        8
 66
     8
 43
1.0
 76
     1
 77
     6
 78
     2
 67
     7
 79
     5
170
     0
171
     0
290
     0
174
     0
 93
       13
 44
0.0
173
     0
291
     0
 45
0.0
1001
ACAD
1000
AcDbSavedByObjectVersion
1070
     0
1000
AcDbSavedByObjectVersion
1070
     0
1000
AcDbSavedByObjectVersion
1070
     0
1000
AcDbSavedByObjectVersion
1070
     0
1000
AcDbSavedByObjectVersion
1070
     0
1000
AcDbSavedByObjectVersion
1070
     0
1000
AcDbSavedByObjectVersion
1070
     0
  0
VISUALSTYLE
  5
A6
102
{ACAD_REACTORS
330
99
102
}
330
99
100
AcDbVisualStyle
  2
Thicken
 70
    13
 71
     2
 72
     2
 73
     1
 90
        0
 40
-0.6
 41
-30.0
 62
     5
 63
     7
 74
     1
 91
        4
 64
     7
 65
   257
 75
     1
175
     1
 42
1.0
 92
       12
 66
     7
 43
1.0
 76
     1
 77
     6
 78
     2
 67
     7
 79
     5
170
     0
171
     0
290
     0
174
     0
 93
        1
 44
0.0
173
     0
291
     1
 45
0.0
1001
ACAD
1000
AcDbSavedByObjectVersion
1070
     0
1000
AcDbSavedByObjectVersion
1070
     0
1000
AcDbSavedByObjectVersion
1070
     0
1000
AcDbSavedByObjectVersion
1070
     0
1000
AcDbSavedByObjectVersion
1070
     0
1000
AcDbSavedByObjectVersion
1070
     0
1000
AcDbSavedByObjectVersion
1070
     0
  0
DICTIONARYVAR
  5
89
102
{ACAD_REACTORS
330
66
102
}
330
66
100
DictionaryVariables
280
     0
  1
STANDARD
  0
DICTIONARYVAR
  5
67
102
{ACAD_REACTORS
330
66
102
}
330
66
100
DictionaryVariables
280
     0
  1
2
  0
DICTIONARYVAR
  5
6B
102
{ACAD_REACTORS
330
66
102
}
330
66
100
DictionaryVariables
280
     0
  1
1
  0
DICTIONARYVAR
  5
1D63
102
{ACAD_REACTORS
330
66
102
}
330
66
100
DictionaryVariables
280
     0
  1
0
  0
DICTIONARYVAR
  5
1F8C
102
{ACAD_REACTORS
330
66
102
}
330
66
100
DictionaryVariables
280
     0
  1
1.570796
  0
DICTIONARYVAR
  5
1F8D
102
{ACAD_REACTORS
330
66
102
}
330
66
100
DictionaryVariables
280
     0
  1
1.570796
  0
DICTIONARYVAR
  5
1D62
102
{ACAD_REACTORS
330
66
102
}
330
66
100
DictionaryVariables
280
     0
  1
127
  0
DICTIONARY
  5
1F8F
330
22
100
AcDbDictionary
280
     1
281
     1
  3
ACAD_XREC_ROUNDTRIP
360
1F90
  0
DICTIONARY
  5
3B2
330
59
100
AcDbDictionary
280
     1
281
     1
  3
ACAD_XREC_ROUNDTRIP
360
1F91
  3
ADSK_XREC_LAYOUTTHUMBNAIL
360
3B3
  0
DICTIONARY
  5
1D6E
330
97
100
AcDbDictionary
280
     1
281
     1
  3
ACAD_XREC_ROUNDTRIP
360
1D6F
  0
DICTIONARY
  5
1D6C
330
96
100
AcDbDictionary
280
     1
281
     1
  3
ACAD_XREC_ROUNDTRIP
360
1D6D
  0
DICTIONARY
  5
1D70
330
98
100
AcDbDictionary
280
     1
281
     1
  3
ACAD_XREC_ROUNDTRIP
360
1D71
  0
DICTIONARY
  5
1F92
330
87
100
AcDbDictionary
280
     1
281
     1
  3
ACAD_XREC_ROUNDTRIP
360
1F93
  0
XRECORD
  5
1F90
102
{ACAD_REACTORS
330
1F8F
102
}
330
1F8F
100
AcDbXrecord
280
     1
102
SHADEPLOT
 70
     0
102
SHADEPLOTRESLEVEL
 70
     2
102
SHADEPLOTCUSTOMDPI
 70
   300
  0
XRECORD
  5
1F91
102
{ACAD_REACTORS
330
3B2
102
}
330
3B2
100
AcDbXrecord
280
     1
102
SHADEPLOT
 70
     0
102
SHADEPLOTRESLEVEL
 70
     2
102
SHADEPLOTCUSTOMDPI
 70
   300
  0
XRECORD
  5
3B3
102
{ACAD_REACTORS
330
3B2
102
}
330
3B2
100
AcDbXrecord
280
     1
310
28000000B40000007F00000001000800000000004C59000000000000000000000001000000000000FFFFFF0000000000FFFFFF000000000000000000000000000000000000000000000000000000000000000000330000006600000099000000CC000000FF00000000330000333300006633000099330000CC330000FF3300
310
0000660000336600006666000099660000CC660000FF66000000990000339900006699000099990000CC990000FF99000000CC000033CC000066CC000099CC0000CCCC0000FFCC000000FF000033FF000066FF000099FF0000CCFF0000FFFF000000003300330033006600330099003300CC003300FF003300003333003333
310
33006633330099333300CC333300FF33330000663300336633006666330099663300CC663300FF66330000993300339933006699330099993300CC993300FF99330000CC330033CC330066CC330099CC3300CCCC3300FFCC330000FF330033FF330066FF330099FF3300CCFF3300FFFF330000006600330066006600660099
310
006600CC006600FF00660000336600333366006633660099336600CC336600FF33660000666600336666006666660099666600CC666600FF66660000996600339966006699660099996600CC996600FF99660000CC660033CC660066CC660099CC6600CCCC6600FFCC660000FF660033FF660066FF660099FF6600CCFF6600
310
FFFF660000009900330099006600990099009900CC009900FF00990000339900333399006633990099339900CC339900FF33990000669900336699006666990099669900CC669900FF66990000999900339999006699990099999900CC999900FF99990000CC990033CC990066CC990099CC9900CCCC9900FFCC990000FF99
310
0033FF990066FF990099FF9900CCFF9900FFFF99000000CC003300CC006600CC009900CC00CC00CC00FF00CC000033CC003333CC006633CC009933CC00CC33CC00FF33CC000066CC003366CC006666CC009966CC00CC66CC00FF66CC000099CC003399CC006699CC009999CC00CC99CC00FF99CC0000CCCC0033CCCC0066CC
310
CC0099CCCC00CCCCCC00FFCCCC0000FFCC0033FFCC0066FFCC0099FFCC00CCFFCC00FFFFCC000000FF003300FF006600FF009900FF00CC00FF00FF00FF000033FF003333FF006633FF009933FF00CC33FF00FF33FF000066FF003366FF006666FF009966FF00CC66FF00FF66FF000099FF003399FF006699FF009999FF00CC
310
99FF00FF99FF0000CCFF0033CCFF0066CCFF0099CCFF00CCCCFF00FFCCFF0000FFFF0033FFFF0066FFFF0099FFFF00CCFFFF00FFFFFF00000000000D0D0D001A1A1A00282828003535350043434300505050005D5D5D006B6B6B00787878008686860093939300A1A1A100AEAEAE00BBBBBB00C9C9C900D6D6D600E4E4E400
310
F1F1F100FFFFFF0000000000000000000000000000000000000000000000000000000000000000000000000000000000E2E2E2E2E2E2E2E2E2E2E2E2E2E2E2E2E2E2E2E2E2E2E2E2E2E2E2E2E2E2E2E2E2E2E2E2E2E2E2E2E2E2E2E2E2E2E2E2E2E2E2E2E2E2E2E2E2E2E2E2E2E2E2E2E2E2E2E2E2E2E2E2E2E2E2E2E2E2E2
310
E2E2E2E2E2E2E2E2E2E2E2E2E2E2E2E2E2E2E2E2E2E2E2E2E2E2E2E2E2E2E2E2E2E2E2E2E2E2E2E2E2E2E2E2E2E2E2E2E2E2E2E2E2E2E2E2E2E2E2E2E2E2E2E2E2E2E2E2E2E2E2E2E2E2E2E2E2E2E2E2E2E2E2E2E2E2E2E2E2E2E2E2E2E2E2E2E2E2E2E2E2E2F5F5F5F5F5F5F5F5F5F5F5F5F5F5F5F5F5F5F5F5F5F5F5F5F5
310
F5F5F5F5F5F5F5F5F5F5F5F5F5F5F5F5F5F5F5F5F5F5F5F5F5F5F5F5F5F5F5F5F5F5F5F5F5F5F5F5F5F5F5F5F5F5F5F5F5F5F5F5F5F5F5F5F5F5F5F5F5F5F5F5F5F5F5F5F5F5F5F5F5F5F5F5F5F5F5F5F5F5F5F5F5F5F5F5F5F5F5F5F5F5F5F5F5F5F5F5F5F5F5F5F5F5F5F5F5F5F5F5F5F5F5F5F5F5F5F5F5F5F5F5F5F5F5
310
F5F5F5F5F5F5F5F5F5F5F5F5F5F5F5F5F5F5F5F5F5F5F5F5F5E2E2E2F5F5F5F5F5F5F5F5F5F5F5F5F5F5F5F5F5F5F5F5F5F5F5F5F5F5F5F5F5F5F5F5F5F5F5F5F5F5F5F5F5F5F5F5F5F5F5F5F5F5F5F5F5F5F5F5F5F5F5F5F5F5F5F5F5F5F5F5F5F5F5F5F5F5F5F5F5F5F5F5F5F5F5F5F5F5F5F5F5F5F5F5F5F5F5F5F5F5F5
310
F5F5F5F5F5F5F5F5F5F5F5F5F5F5F5F5F5F5F5F5F5F5F5F5F5F5F5F5F5F5F5F5F5F5F5F5F5F5F5F5F5F5F5F5F5F5F5F5F5F5F5F5F5F5F5F5F5F5F5F5F5F5F5F5F5F5F5F5F5F5F5F5F5F5F5F5F5F5E2E2E2F5F5F5F5F5F5F5F5F5F5F5F5F5F5F5F5F5F5F5F5F5F5F5F5F5F5F5F5F5F5F5F5F5F5F5F5F5F5F5F5F5F5F5F5F5F5
310
F5F5F5F5F5F5F5F5F5F5F5F5F5F5F5F5F5F5F5F5F5F5F5F5F5F5F5F5F5F5F5F5F5F5F5F5F5F5F5F5F5F5F5F5F5F5F5F5F5F5F5F5F5F5F5F5F5F5F5F5F5F5F5F5F5F5F5F5F5F5F5F5F5F5F5F5F5F5F5F5F5F5F5F5F5F5F5F5F5F5F5F5F5F5F5F5F5F5F5F5F5F5F5F5F5F5F5F5F5F5F5F5F5F5F5F5F5F5F5F5F5F5F5F5F5F5F5
310
F5F5F5F5E2E2E2F5F5F5F5F5E2E2E2E2E2E2E2E2F5F5F5F5F5F5F5F5F5E2E2E2E2E2E2E2E2E2E2E2E2E2E2E2F5F5F5F5F5F5F5F5E2E2E2E2E2E2E2E2E2E2E2E2E2E2E2E2F5F5F5F5F5F5F5F5E2E2E2E2E2E2E2E2E2E2E2E2E2E2E2F5F5F5F5F5F5F5F5F5E2E2E2E2E2E2E2E2E2E2E2E2E2E2E2F5F5F5F5F5F5F5F5E2E2E2E2
310
E2E2E2E2E2E2E2E2E2E2E2E2F5F5F5F5F5F5F5F5E2E2E2E2E2E2E2E2E2E2E2E2E2E2E2F5F5F5F5F5F5F5F5F5E2E2E2E2E2E2E2E2F5F5F5F5F5E2E2E2F5F5F5F5F5E2F5F5F5F5F5F5F5F5F5F5F5F5F5F5F5F5F5F5F5F5F5F5F5F5F5F5F5F5F5F5F5F5F5F5F5F5F5F5F5F5F5F5F5F5F5F5F5F5F5F5F5F5F5F5F5F5F5F5F5F5F5
310
F5F5F5F5F5F5F5F5F5F5F5F5F5F5F5F5F5F5F5F5F5F5F5F5F5F5F5F5F5F5F5F5F5F5F5F5F5F5F5F5F5F5F5F5F5F5F5F5F5F5F5F5F5F5F5F5F5F5F5F5F5F5F5F5F5F5F5F5F5F5F5F5F5F5F5F5F5F5F5F5F5F5F5F5F5F5F5F5F5F5F5F5F5F5F5F5F5F5F5F5F5F5F5F5E2F5F5F5F5F5E2E2E2F5F5F5F5F5E2F5F5F5F5F5F5F5F5
310
F5F5F5F5F5F5F5F5F5F5F5F5F5F5F5F5F5F5F5F5F5E2F5F5F5F5F5F5F5F5F5F5F5F5F5F5F5F5F5F5F5F5F5F5F5F5F5E2F5F5F5F5F5F5F5F5F5F5F5F5F5F5F5F5F5F5F5F5F5F5F5F5F5F5E2F5F5F5F5F5F5F5F5F5F5F5F5F5F5F5F5F5F5F5F5F5F5F5F5F5F5E2F5F5F5F5F5F5F5F5F5F5F5F5F5F5F5F5F5F5F5F5F5F5F5F5F5
310
E2F5F5F5F5F5F5F5F5F5F5F5F5F5F5F5F5F5F5F5F5F5F5F5F5F5F5F5F5F5E2F5F5F5F5F5E2E2E2F5F5F5F5F5E2F5F5F5F5F5F5F5F5F5F5F5F5F5F5F5E2F5F5F5F5F5F5F5F5F5F5F5F5F5E2F5F5F5F5F5F5F5F5F5F5F5F5E2F5F5F5F5F5F5F5F5F5F5F5F5E2F5F5F5F5F5F5F5F5F5F5F5F5E2E2F5F5F5F5F5F5F5F5F5F5F5F5
310
E2F5F5F5F5F5F5F5F5F5F5F5F5E2E2F5F5F5F5F5F5F5F5F5F5F5F5E2F5F5F5F5F5F5F5F5F5F5F5F5E2F5F5F5F5F5F5F5F5F5F5F5F5E2F5F5F5F5F5F5F5F5F5F5F5F5E2E2F5F5F5F5F5F5F5F5F5F5F5F5F5F5F5E2F5F5F5F5F5E2E2E2F5F5F5F5F5E2F5F5F5F5F5F5F5F5F5F5F5F5F5F5F5E2F5F5F5F5F5F5F5F5F5F5F5F5F5
310
E2F5F5F5F5F5F5F5F5F5F5F5F5E2F5F5F5F5F5F5F5F5F5F5F5F5E2F5F5F5F5F5F5F5F5F5F5F5F5E2E2F5F5F5F5F5F5F5F5F5F5F5F5E2F5F5F5F5F5F5F5F5F5F5F5F5E2F5F5F5F5F5F5F5F5F5F5F5F5F5E2F5F5F5F5F5F5F5F5F5F5F5F5E2F5F5F5F5F5F5F5F5F5F5F5F5E2F5F5F5F5F5F5F5F5F5F5F5F5E2E2F5F5F5F5F5F5
310
F5F5F5F5F5F5F5F5F5E2F5F5F5F5F5E2E2E2F5F5F5F5F5E2F5F5E2E2E2E2E2E2E2E2E2E2E2E2E2E2E2E2E2E2E2E2E2E2E2E2E2E2E2E2E2E2E2E2E2E2E2E2E2E2E2E2E2E2E2E2E2E2E2E2E2E2E2E2E2E2E2E2E2E2E2E2E2E2E2E2E2E2E2E2E2E2E2E2E2E2E2E2E2E2E2E2E2E2E2E2E2E2E2E2E2E2E2E2E2E2E2E2E2E2E2E2E2
310
E2E2E2E2E2E2E2E2E2E2E2E2E2E2E2E2E2E2E2E2E2E2E2E2E2E2E2E2E2E2E2E2E2E2E2E2E2E2E2E2E2E2E2E2E2E2E2E2E2E2E2E2E2E2E2E2E2E2E2E2F5F5E2F5F5F5F5F5E2E2E2F5F5F5F5F5E2F5F5E2F5F5F5F5F5F5F5F5F5F5F5F5F5F5F5F5F5F5F5F5F5F5F5F5F5F5F5F5F5F5F5F5F5F5F5F5F5F5F5F5F5F5F5F5F5F5F5
310
F5F5F5F5F5F5F5F5F5F5F5F5F5F5F5F5F5F5F5F5F5F5F5F5F5F5F5F5F5F5F5F5F5F5F5F5F5F5F5F5F5F5F5F5F5F5F5F5F5F5F5F5E2F5F5F5F5F5F5F5F5F5F5F5F5F5F5F5F5F5E2F5F5F5F5F5E2E2E2E2E2E2E2E2E2E2E2E2E2E2E2E2E2E2F5F5F5F5F5F5F5F5F5F5F5F5F5F5F5F5F5F5E2F5F5E2F5F5F5F5F5E2E2E2F5F5F5
310
F5F5E2F5F5E2F5F5F5F5F5F5F5F5F5F5F5F5F5F5F5F5F5F5F5F5F5F5F5F5F5F5F5F5F5F5F5F5F5F5F5F5F5F5F5F5F5F5F5F5F5F5F5F5F5F5F5F5F5F5F5F5F5F5F5F5F5F5F5F5F5F5F5F5F5F5F5F5F5F5F5F5F5F5F5F5F5F5F5F5F5F5F5F5F5F5F5F5F5F5F5F5F5F5F5E2F5F5F5F5F5F5F5F5F5F5F5F5F5F5F5F5F5E2F5F5F5
310
F5F5E2E2E2E2E2E2E2E2E2E2E2F5F5F5F5F5F5F5F5F5F5F5F5F5F5F5F5F5F5F5F5F5F5F5F5F5E2F5F5E2F5F5F5F5F5E2E2E2F5F5F5F5F5F5F5F5E2F5F5F5F5F5F5F5F5F5F5F5F5F5F5F5F5F5F5F5F5F5F5F5F5F5F5F5F5F5F5F5F5F5F5F5F5F5F5F5F5F5F5F5F5F5F5F5F5F5F5F5F5F5F5F5F5F5F5F5F5F5F5F5F5F5F5F5F5
310
F5F5F5F5F5F5F5F5F5F5F5F5F5F5F5F5F5F5F5F5F5F5F5F5F5F5F5F5F5F5F5E2E2E2E2E2E2E2E2E2E2E2E2E2E2E2E2E2E2E2F5F5F5F5F5F5F5F5F5F5F5F5F5F5F5F5F5F5F5F5F5F5F5E2F5F5F5F5F5F5F5F5F5F5F5F5F5F5F5F5F5E2F5F5F5F5F5F5F5F5E2E2E2F5F5F5F5F5F5F5F5E2F5F5F5F5F5F5F5F5F5F5F5F5F5F5F5
310
F5F5F5F5F5F5F5F5F5F5F5F5F5F5F5F5F5F5F5F5F5F5F5F5F5F5F5F5F5F5F5F5F5F5F5F5F5F5F5F5F5F5F5F5F5F5F5F5F5F5F5F5F5F5F5F5F5F5F5F5F5F5F5F5F5F5F5F5F5F5F5F5F5F5F5F5F5F5F5F5F5F5F5F5E2F5F5F5F5F5F5F5F5F5F5F5F5F5F5F5F5F5E2F5F5F5F5F5E2E2E2E2E2E2E2E2E2F5E2E2E2E2E2E2E2E2E2
310
E2E2E2E2E2E2E2E2E2E2E2E2E2E2F5F5F5E2F5F5F5F5F5F5F5F5E2E2E2F5F5F5F5F5F5F5F5E2F5F5F5F5F5F5F5F5F5F5F5F5F5F5F5F5F5F5F5F5F5F5F5F5F5F5F5F5F5F5F5F5F5F5F5F5F5F5F5F5F5F5F5F5F5F5F5F5F5F5F5F5F5F5F5F5F5F5F5F5F5F5F5F5F5F5F5F5F5F5F5F5F5F5F5F5F5F5F5F5F5F5F5F5F5F5F5F5F5
310
F5F5F5F5F5F5F5F5F5F5E2F5F5F5F5F5F5F5F5F5F5F5F5F5F5F5F5F5E2F5F5F5F5F5E2E2F5E2E2E2E2E2E2E2E2E2E2E2E2E2E2E2E2E2E2E2E2E2E2E2E2E2E2E2E2E2E2F5F5F5E2F5F5F5F5F5F5F5F5E2E2E2F5F5F5F5F5F5F5F5E2F5F5F5F5F5F5F5F5F5F5F5F5F5F5F5F5F5F5F5F5F5F5F5F5F5F5F5F5F5F5F5F5F5F5F5F5
310
F5F5F5F5F5F5F5F5F5F5F5F5F5F5F5F5F5F5F5F5F5F5F5F5F5F5F5F5F5F5F5F5F5F5F5F5F5F5F5F5F5F5F5F5F5F5F5F5F5F5F5F5F5F5F5F5F5F5F5F5F5F5F5E2E2E2E2E2E2E2E2E2E2E2E2E2E2E2E2E2E2E2F5F5F5F5F5E2E2E2F5E2E2E2E2E2E2E2F5E2E2E2E2E2E2E2E2E2E2E2E2E2E2E2E2E2E2E2E2E2F5F5F5E2F5F5F5
310
F5F5F5F5F5E2E2E2F5F5F5F5F5F5F5F5E2F5F5F5F5F5F5F5F5F5F5F5F5F5F5F5F5F5F5F5F5F5F5F5F5F5F5F5F5F5F5F5F5F5F5F5F5F5F5F5F5F5F5F5F5F5F5F5F5F5F5F5F5F5F5F5F5F5F5F5F5F5F5F5F5F5F5F5F5F5F5F5F5F5F5F5F5F5F5F5F5F5F5F5F5F5F5F5F5F5F5F5F5F5F5F5F5F5F5F5E2F5F5F5F5F5F5F5F5F5F5
310
F5F5F5F5F5F5F5E2F5F5F5F5F5E2E2E2E2E2E2E2E2E2E2E2F5F5F5F5F5F5F5F5F5F5F5F5F5F5F5F5F5F5F5F5F5F5F5F5F5E2F5F5F5F5F5F5F5F5E2E2E2F5F5F5F5F5F5F5F5E2F5F5F5F5F5F5F5F5F5F5F5F5F5F5F5F5F5F5F5F5F5F5F5F5F5F5F5F5F5F5F5F5F5F5F5F5F5F5F5F5F5F5F5F5F5F5F5F5F5F5F5F5F5F5F5F5F5
310
F5F5F5F5F5F5F5F5F5F5F5F5F5F5F5F5F5F5F5F5F5F5F5F5F5F5F5F5F5F5F5F5F5F5F5F5F5F5F5F5F5F5E2F5F5F5F5F5F5F5F5F5F5F5F5F5F5F5F5F5E2E2E2F5F5F5F5F5F5F5F5F5F5F5F5F5F5F5F5F5F5F5F5F5F5F5F5F5F5F5F5F5F5F5F5F5F5F5F5F5F5F5E2F5F5F5F5F5F5F5F5E2E2E2F5F5F5F5F5F5F5F5E2F5F5F5F5
310
F5F5F5F5F5F5F5F5F5F5F5F5F5F5F5F5F5F5F5F5F5F5F5F5F5F5F5F5F5F5F5F5F5F5F5F5F5F5F5F5F5F5F5F5F5F5F5F5F5F5F5F5F5F5F5F5F5F5F5F5F5F5F5F5F5F5F5F5F5F5F5F5F5F5F5F5F5F5F5F5F5F5F5F5F5F5F5F5F5F5F5F5F5F5F5E2E2E2E2E2E2E2E2E2E2E2E2E2E2E2E2E2E2E2E2E2E2E2E2E2E2E2E2E2E2E2E2
310
E2E2E2E2E2E2E2E2E2E2E2E2E2E2E2E2E2E2E2E2E2E2E2E2E2E2E2E2E2F5F5F5F5F5F5F5F5E2E2E2F5F5F5F5F5F5F5F5E2F5F5F5F5F5F5F5F5F5F5F5F5F5F5F5F5F5F5F5F5F5F5F5F5F5F5F5F5F5F5F5F5F5F5F5F5F5F5F5F5F5F5F5F5F5F5F5F5F5F5F5F5F5F5F5F5F5F5F5F5F5F5F5F5F5F5F5F5F5F5F5F5F5F5F5F5F5F5
310
F5F5F5F5F5F5F5F5F5F5F5F5F5F5F5F5F5F5F5F5F5E2F5F5F5F5E2E2E2E2E2E2E2E2F5F5F5F5F5E2F5F5F5F5F5F5F5F5F5F5F5F5F5F5F5E2E2E2E2E2E2E2E2E2E2E2F5F5F5F5F5F5F5F5F5F5F5F5F5F5F5E2F5F5F5F5F5F5F5F5E2E2E2F5F5F5F5F5F5F5F5E2F5F5F5F5F5F5F5F5F5F5F5F5F5F5F5F5F5F5F5F5F5F5F5F5F5
310
F5F5F5F5F5F5F5F5F5F5F5F5F5F5F5F5F5F5F5F5F5F5F5F5F5F5F5F5F5F5F5F5F5F5F5F5F5F5F5F5F5F5F5F5F5F5F5F5F5F5F5F5F5F5F5F5F5F5F5F5F5F5F5F5F5F5F5F5F5F5F5F5F5F5E2E2E2F5F5F5F5F5F5F5F5F5F5F5F5F5F5F5E2F5F5E2E2E2E2E2E2E2E2E2E2E2F5F5E2E2E2E2E2E2E2E2E2E2E2F5F5F5F5F5F5F5F5
310
F5F5F5F5F5F5F5E2F5F5F5F5F5F5F5F5E2E2E2F5F5F5F5F5E2F5F5E2F5F5F5F5F5F5F5F5F5F5F5F5F5F5F5F5F5F5F5F5F5F5F5F5F5F5F5F5F5F5F5F5F5F5F5F5F5F5F5F5F5F5F5F5F5F5F5F5F5F5F5F5F5F5F5F5F5F5F5F5F5F5F5F5F5F5F5F5F5F5F5F5F5F5F5F5F5F5F5F5F5F5F5F5F5F5F5F5F5F5F5F5F5F5F5F5F5F5F5
310
E2E2E2E2E2E2E2E2E2E2E2E2E2E2E2E2E2E2E2F5F5E2E2E2E2E2E2E2E2E2E2E2F5F5E2E2E2E2E2E2E2E2E2E2E2E2E2E2E2E2E2E2F5F5F5F5F5F5F5F5E2F5F5E2F5F5F5F5F5E2E2E2F5F5F5F5F5E2E2E2E2F5F5F5F5F5F5F5F5F5F5F5F5F5F5F5F5F5F5F5F5F5F5F5F5F5F5F5F5F5F5F5F5F5F5F5F5F5F5F5F5F5F5F5F5F5F5
310
F5F5F5F5F5F5F5F5F5F5F5F5F5F5F5F5F5F5F5F5F5F5F5F5F5F5F5F5F5F5F5F5F5F5F5F5F5F5F5F5F5F5F5F5F5F5F5F5F5F5F5F5F5E2F5F5F5F5F5E2E2E2E2E2E2F5F5F5F5F5F5E2F5F5F5F5F5F5F5F5F5F5F5F5F5F5F5E2E2E2E2E2E2E2E2E2E2E2E2E2E2E2E2E2E2F5F5F5F5F5F5F5F5E2E2E2E2F5F5F5F5F5E2E2E2F5F5
310
F5F5F5E2E2E2E2F5F5F5F5F5F5F5F5F5F5F5F5F5F5F5F5F5F5F5F5F5F5F5F5F5F5F5F5F5F5F5F5F5F5F5F5F5F5F5F5F5F5F5F5F5F5F5F5F5F5F5F5F5F5F5F5F5F5F5F5F5F5F5F5F5F5F5F5F5F5F5F5F5F5F5F5F5F5F5F5F5F5F5F5F5F5F5F5F5F5F5F5F5F5F5F5F5F5F5E2E2E2F5F5F5F5F5F5F5F5F5F5F5F5F5F5F5E2E2E2
310
F5F5F5F5F5F5F5F5F5F5F5F5F5F5F5F5F5F5F5F5F5F5F5F5F5F5F5F5F5F5F5F5F5F5F5F5F5F5F5E2E2E2E2F5F5F5F5F5E2E2E2F5F5F5F5F5E2F5F5E2F5F5F5F5F5F5F5F5F5F5F5F5F5F5F5F5F5F5F5F5F5F5F5F5F5F5F5F5F5F5F5F5F5F5F5F5F5F5F5F5F5F5F5F5F5F5F5F5F5F5F5F5F5F5F5F5F5F5F5F5F5F5F5F5F5F5F5
310
F5F5F5F5F5F5F5F5F5F5F5F5F5F5F5F5F5F5F5F5F5F5F5F5F5F5F5F5F5F5F5F5E2E2E2E2E2E2E2E2E2E2E2E2E2E2E2E2E2E2E2E2E2E2E2E2E2E2E2E2E2E2E2E2E2E2E2E2E2E2E2E2E2E2E2E2E2E2E2E2E2E2E2E2E2E2E2E2E2E2E2E2E2F5F5E2F5F5F5F5F5E2E2E2F5F5F5F5F5E2F5F5E2F5F5F5F5F5F5F5F5F5F5F5F5F5F5
310
F5F5F5F5F5F5F5F5F5F5F5F5F5F5F5F5F5F5F5F5F5F5F5F5F5F5F5F5F5F5F5F5F5F5F5F5F5F5F5F5F5F5F5F5F5F5F5F5F5F5F5F5F5F5F5F5F5F5F5F5F5F5F5F5F5F5F5F5F5F5F5F5F5F5F5F5F5F5F5F5F5F5F5F5F5E2F5F5F5F5F5E2F5F5F5F5F5E2E2F5F5F5F5E2F5F5F5F5F5F5F5F5F5F5F5F5F5F5F5F5F5F5F5F5F5F5E2
310
E2E2F5F5F5F5F5F5F5F5F5F5F5F5F5F5F5F5E2F5F5E2F5F5F5F5F5E2E2E2F5F5F5F5F5E2F5F5E2F5F5F5F5F5F5F5F5F5F5F5F5F5F5F5F5F5F5F5F5F5F5F5F5F5F5F5F5F5F5F5F5F5F5F5F5F5F5F5F5F5F5F5F5F5F5F5F5F5F5F5F5F5F5F5F5F5F5F5F5F5F5F5F5F5F5F5F5F5F5F5F5F5F5F5F5F5F5F5F5F5F5F5F5F5F5F5F5
310
F5F5F5F5F5F5F5F5F5F5F5E2F5F5F5F5E2E2E2E2E2E2E2F5E2F5F5F5F5E2F5F5E2E2E2E2E2E2E2E2E2E2E2F5F5E2E2E2E2E2E2E2E2E2E2F5F5F5F5F5F5F5F5F5F5F5F5F5F5F5F5E2F5F5E2F5F5F5F5F5E2E2E2F5F5F5F5F5E2F5F5E2F5F5F5F5F5F5F5F5F5F5F5F5F5F5F5F5F5F5F5F5F5F5F5F5F5F5F5F5F5F5F5F5F5F5F5
310
F5F5F5F5F5F5F5F5F5F5F5F5F5F5F5F5F5F5F5F5F5F5F5F5F5F5F5F5F5F5F5F5F5F5F5F5F5F5F5F5F5F5F5F5F5F5F5F5F5F5F5F5F5F5F5F5F5F5F5F5F5F5F5F5E2F5F5F5E2E2E2E2E2E2E2E2E2E2E2F5F5F5E2F5F5E2E2E2E2E2E2E2E2E2E2E2F5F5E2E2E2E2E2E2E2E2E2E2E2E2E2E2E2E2E2E2F5F5F5F5F5F5F5F5E2F5F5
310
E2F5F5F5F5F5E2E2E2F5F5F5F5F5E2F5F5E2F5F5F5F5F5F5F5F5F5F5F5F5F5F5F5F5F5F5F5F5F5F5F5F5F5F5F5F5F5F5F5F5F5F5F5F5F5F5F5F5F5F5F5F5F5F5F5F5F5F5F5F5F5F5F5F5F5F5F5F5F5F5F5F5F5F5F5F5F5F5F5F5F5F5F5F5F5F5F5F5F5F5F5F5F5F5F5F5F5F5F5F5F5F5F5F5F5F5F5E2F5F5F5F5E2E2E2E2E2
310
E2F5F5E2F5F5F5F5E2F5F5F5F5F5F5F5F5F5F5F5F5F5F5F5E2E2E2E2E2E2E2E2E2E2E2E2E2E2E2E2E2E2F5F5F5F5F5F5F5F5E2F5F5E2F5F5F5F5F5E2E2E2F5F5F5F5F5E2F5F5E2F5F5F5F5F5F5F5F5F5F5F5F5F5F5F5F5F5F5F5F5F5F5F5F5F5F5F5F5F5F5F5F5F5F5F5F5F5F5F5F5F5F5F5F5F5F5F5F5F5F5F5F5F5F5F5F5
310
F5F5F5F5F5F5F5F5F5F5F5F5F5F5F5F5F5F5F5F5F5F5F5F5F5F5F5F5F5F5F5F5F5F5F5F5F5F5F5F5F5F5F5E2E2E2F5F5E2E2E2F5F5F5E2E2E2F5F5F5F5E2E2E2F5F5F5F5F5F5F5F5F5F5F5F5F5F5F5F5F5F5F5F5F5F5F5F5F5F5F5F5F5F5F5F5F5F5F5F5F5F5F5E2F5F5E2F5F5F5F5F5E2E2E2F5F5F5F5F5E2F5F5E2F5F5F5
310
F5F5F5F5F5F5F5F5F5F5F5F5F5F5F5F5F5F5F5F5F5F5F5F5F5F5F5F5F5F5F5F5F5F5F5F5F5F5F5F5F5F5F5F5F5F5F5F5F5F5F5F5F5F5F5F5F5F5F5F5F5F5F5F5F5F5F5F5F5F5F5F5F5F5F5F5F5F5F5F5F5F5F5F5F5F5F5F5F5F5F5F5F5F5F5F5E2E2E2E2E2E2E2E2E2E2E2E2E2E2E2E2E2E2E2E2E2E2E2E2E2E2E2E2E2E2E2
310
E2E2E2E2E2E2E2E2E2E2E2E2E2E2E2E2E2E2E2E2E2E2E2E2E2E2E2E2E2E2F5F5E2F5F5F5F5F5E2E2E2F5F5F5F5F5E2F5F5E2F5F5F5F5F5F5F5F5F5F5F5F5F5F5F5F5F5F5F5F5F5F5F5F5F5F5F5F5F5F5F5F5F5F5F5F5F5F5F5F5F5F5F5F5F5F5F5F5F5F5F5F5F5F5F5F5F5F5F5F5F5F5F5F5F5F5F5F5F5F5F5F5F5F5F5F5F5
310
F5F5F5F5F5F5F5F5F5F5F5F5F5F5F5F5F5F5F5F5F5F5F5F5F5F5F5F5F5F5F5F5F5F5F5F5F5F5F5F5F5F5F5F5F5F5F5F5F5F5F5F5F5F5F5F5F5F5F5F5F5F5F5F5F5F5F5F5F5F5F5F5F5F5F5F5F5F5F5F5F5F5E2F5F5E2F5F5F5F5F5E2E2E2F5F5F5F5F5E2F5F5E2F5F5F5F5F5F5F5F5F5F5F5F5F5F5F5F5F5F5F5F5F5F5F5F5
310
F5F5F5F5F5F5F5F5F5F5F5F5F5F5F5F5F5F5F5F5F5F5F5F5F5F5F5F5F5F5F5F5F5F5F5F5F5F5F5F5F5F5F5F5F5F5F5F5F5F5F5F5F5F5F5F5F5F5F5F5F5F5F5F5F5F5F5F5F5F5F5F5F5F5F5F5F5F5F5F5F5F5F5F5F5F5F5F5F5F5F5F5F5F5F5F5F5F5F5F5F5F5F5F5F5F5F5F5F5F5F5F5F5F5F5F5F5F5F5F5F5F5F5F5F5F5F5
310
F5F5F5F5F5F5F5F5E2F5F5E2F5F5F5F5F5E2E2E2F5F5F5F5F5E2F5F5E2F5F5F5F5F5F5F5F5F5F5F5F5F5F5F5F5F5F5F5F5F5F5F5F5F5F5F5F5F5F5F5F5F5F5F5F5F5F5F5F5F5F5F5F5F5F5F5F5F5F5F5F5F5F5F5F5F5F5F5F5F5F5F5F5F5F5F5F5F5F5F5F5F5F5F5F5F5F5F5F5F5F5F5F5F5F5F5F5F5F5F5F5F5F5F5F5F5F5
310
F5F5F5F5F5F5F5F5F5F5F5F5F5F5F5F5F5F5F5F5F5F5F5F5F5F5F5F5F5F5F5F5F5F5F5F5F5F5F5F5F5F5F5F5F5F5F5F5F5F5F5F5F5F5F5F5F5F5F5F5F5E2F5F5E2F5F5F5F5F5E2E2E2F5F5F5F5F5E2F5F5E2F5F5F5F5F5F5F5F5F5F5F5F5F5F5F5F5F5F5F5F5F5F5F5F5F5F5F5F5F5F5F5F5F5F5F5F5F5F5F5F5F5F5F5F5F5
310
F5F5F5F5F5F5F5F5F5F5F5F5F5F5F5F5F5F5F5F5F5F5F5F5F5F5F5F5F5F5F5F5F5F5F5F5F5F5F5F5F5F5F5F5F5F5F5F5F5F5F5F5F5F5F5F5F5F5F5F5F5F5F5F5F5F5F5F5F5F5F5F5F5F5F5F5F5F5F5F5F5F5F5F5F5F5F5F5F5F5F5F5F5F5F5F5F5F5F5F5F5F5F5F5F5F5F5F5F5F5F5F5F5F5E2F5F5E2F5F5F5F5F5E2E2E2F5
310
F5F5F5F5E2F5F5E2F5F5F5F5F5F5F5F5F5F5F5F5F5F5F5F5F5F5F5F5F5F5F5F5F5F5F5F5F5F5F5F5F5F5F5F5F5F5F5F5F5F5F5F5F5F5F5F5F5F5F5F5F5F5F5F5F5F5F5F5F5F5F5F5F5F5F5F5F5F5F5F5F5F5F5F5F5F5F5F5F5F5F5F5F5F5F5F5F5F5F5F5F5F5F5F5F5F5F50F0F0F0F0F0F0F0F0F0F0F0F0F0F0F0F0F0F0F0F
310
0F0F0F0F0F0F0F0F0F0F0F0F0F0FF5F5F5F5F5F5F5F5F5F5F5F5F5F5F5F5F5F5F5F5F5F5F5F5F5F5E2F5F5E2F5F5F5F5F5E2E2E2F5F5F5F5F5E2E2E2E2F5F5F5F5F5F5F5F5F5F5F5F5F5F5F5F5F5F5F5F5F5F5F5F5F5F5F5F5F5F5F5F5F5F5F5F5F5F5F5F5F5F5F5F5F5F5F5F5F5F5F5F5F5F5F5F5F5F5F5F5F5F5F5F5F5F5
310
F5F5F5F5F5F5F5F5F5F5F5F5F5F5F5F5F5F5F5F5F5F5F5F5F5F5F5F5F5F5F5F5F50F0F0F0F0F0F0F0F0F0F0F0F0F0F0F0F0F0F0F0F0F0F0F0F0F0F0F0F0F0F0F0F0FF5F5F5F5F5F5F5F5F5F5F5F5F5F5F5F5F5F5F5F5F5F5F5F5F5F5F5E2E2E2E2F5F5F5F5F5E2E2E2F5F5F5F5F5F5F5F5E2F5F5F5F5F5F5F5F5F5F5F5F5F5
310
F5F5F5F5F5F5F5F5F5F5F5F5F5F5F5F5F5F5F5F5F5F5F5F5F5F5F5F5F5F5F5F5F5F5F5F5F5F5F5F5F5F5F5F5F5F5F5F5F5F5F5F5F5F5F5F5F5F5F5F5F5F5F5F5F5F5F5F5F5F5F5F5F5F5F5F5F5F5F5F5F5F5F5F5F5F5F5F5F5F5F5F5F5F5F5F5F5F5F5F5F5F5F5F5F5F5F5F5F5F5F5F5F5F5F5F5F5F5F5F5F5F5F5F5F5F5F5
310
F5F5F5F5F5F5F5F5F5F5F5F5F5F5F5F5F5F5F5E2F5F5F5F5F5F5F5F5E2E2E2F5F5F5F5F5F5F5F5E2F5F5F5F5F5F5F5F5F5F5F5F5F5F5F5F5F5F5F5F5F5F5F5F5F5F5F5F5F5F5F5F5F5F5F5F5F5F5F5F5F5F5F5F5F5F5F5F5F5F5F5F5F5F5F5F5F5F5F5F5F5F5F5F5F5F5F5F5F5F5F5F5F5F5F5F5F5F5F5F5F5F5F5F5F5F5F5
310
F5F5F5F5F5F5F5F5F5F5F5F5F5F5F5F5F5F5F5F5F5F5F5F5F5F5F5F5F5F5F5F5F5F5F5F5F5F5F5F5F5F5F5F5F5F5F5F5F5F5F5F5F5F5F5F5F5F5F5F5F5F5F5F5F5F5F5F5F5F5F5F5E2F5F5F5F5F5F5F5F5E2E2E2F5F5F5F5F5F5F5F5E2F5F5F5F5F5F5F5F5F5F5F5F5F5F5F5F5F5F5F5F5F5F5F5F5F5F5F5F5F5F5F5F5F5F5
310
F5F5F5F5F5F5F5F5F5F5F5F5F5F5F5F5F5F5F5F5F5F5F5F5F5F5F5F5F5F5F5F5F5F5F5F5F5F5F5F5F5F5F5F5F5F5F5F5F5F5F5F5F5F5F5F5F5F5F5F5F5F5F5F5F5F5F5F5F5F5F5F5F5F5F5F5F5F5F5F5F5F5F5F5F5F5F5F5F5F5F5F5F5F5F5F5F5F5F5F5F5F5F5F5F5F5F5F5F5F5F5F5F5F5F5F5F5F5F5F5F5F5F5F5F5E2F5
310
F5F5F5F5F5F5F5E2E2E2F5F5F5F5F5F5F5F5E2F5F5F5F5F5F5F5F5F5F5F5F5F5F5F5F5F5F5F5F5F5F5F5F5F5F5F5F5F5F5F5F5F5F5F5F5F5F5F5F5F5F5F5F5F5F5F5F5F5F5F5F5F5F5F5F5F5F5F5F5F5F5F5F5F5F5F5F5F5F5F5F5F5F5F5F5F5F5F5F5F5F5F5F5F5F5F5F5F5F5F5F5F5F5F5F5F5F5F5F5F5F5F5F5F5F5F5F5
310
F5F5F5F5F5F5F5F5F5F5F5F5F5F5F5F5F5F5F5F5F5F5F5F5F5F5F5F5F5F5F5F5F5F5F5F5F5F5F5F5F5F5F5F5F5F5F5F5F5F5F5E2F5F5F5F5F5F5F5F5E2E2E2F5F5F5F5F5F5F5F5E2F5F5F5F5F5F5F5F5F5F5F5F5F5F5F5F5F5F5F5F5F5F5F5F5F5F5F5F5F5F5F5F5F5F5F5F5F5F5F5F5F5F5F5F5F5F5F5F5F5F5F5F5F5F5F5
310
F5F5F5F5F5F5F5F5F5F5F5F5F5F5F5F5F5F5F5F5F5F5F5F5F5F5F5F5F5F5F5F5F5F5F5F5F5F5F5F5F5F5F5F5F5F5F5F5F5F5F5F5F5F5F5F5F5F5F5F5F5F5F5F5F5F5F5F5F5F5F5F5F5F5F5F5F5F5F5F5F5F5F5F5F5F5F5F5F5F5F5F5F5F5F5F5F5F5F5F5F5F5F5F5E2F5F5F5F5F5F5F5F5E2E2E2F5F5F5F5F5F5F5F5E2F5F5
310
F5F5F5F5F5F5F5F5F5F5F5F5F5F5F5F5F5F5F5F5F5F5F5F5F5F5F5F5F5F5F5F5F5F5F5F5F5F5F5F5F5F5F5F5F5F5F5F5F5F5F5F5F5F5F5F5F5F5F5F5F5F5F5F5F5F5F5F5F5F5F5F5F5F5F5F5F5F5F5F5F5F5F5F5F5F5F5F5F5F5F5F5F5F5F5F5F5F5F5F5F5F5F5F5F5F5F5F5F5F5F5F5F5F5F5F5F5F5F5F5F5F5F5F5F5F5F5
310
F5F5F5F5F5F5F5F5F5F5F5F5F5F5F5F5F5F5F5F5F5F5F5F5F5F5F5F5F5F5E2F5F5F5F5F5F5F5F5E2E2E2F5F5F5F5F5F5F5F5E2F5F5F5F5F5F5F5F5F5F5F5F5F5F5F5F5F5F5F5F5F5F5F5F5F5F5F5F5F5F5F5F5F5F5F5F5F5F5F5F5F5F5F5F5F5F5F5F5F5F5F5F5F5F5F5F5F5F5F5F5F5F5F5F5F5F5F5F5F5F5F5F5F5F5F5F5
310
F5F5F5F5F5F5F5F5F5F5F5F5F5F5F5F5F5F5F5F5F5F5F5F5F5F5F5F5F5F5F5F5F5F5F5F5F5F5F5F5F5F5F5F5F5F5F5F5F5F5F5F5F5F5F5F5F5F5F5F5F5F5F5F5F5F5F5F5F5F5F5F5F5F5F5F5F5F5F5F5F5F5F5E2F5F5F5F5F5F5F5F5E2E2E2F5F5F5F5F5E2F5F5E2F5F5F5F5F5F5F5F5F5F5F5F5F5F5F5F5F5F5F5F5F5F5F5
310
F5F5F5F5F5F5F5F5F5F5F5F5F5F5F5F5F5F5F5F5F5F5F5F5F5F5F5F5F5F5F5F5F5F5F5F5F5F5F5F5F5F5F5F5F5F5F5F5F5F5F5F5F5F5F5F5F5F5F5F5F5F5F5F5F5F5F5F5F5F5F5F5F5F5F5F5F5F5F5F5F5F5F5F5F5F5F5F5F5F5F5F5F5F5F5F5F5F5F5F5F5F5F5F5F5F5F5F5F5F5F5F5F5F5F5F5F5F5F5F5F5F5F5F5F5F5F5
310
F5F5F5F5F5F5F5F5F5E2F5F5E2F5F5F5F5F5E2E2E2F5F5F5F5F5E2F5F5E2F5F5F5F5F5F5F5F5F5F5F5F5F5F5F5F5F5F5F5F5F5F5F5F5F5F5F5F5F5F5F5F5F5F5F5F5F5F5F5F5F5F5F5F5F5F5F5F5F5F5F5F5F5F5F5F5F5F5F5F5F5F5F5F5F5F5F5F5F5F5F5F5F5F5F5F5F5F5F5F5F5F5F5F5F5F5F5F5F5F5F5F5F5F5F5F5F5
310
F5F5F5F5F5F5F5F5F5F5F5F5F5F5F5F5F5F5F5F5F5F5F5F5F5F5F5F5F5F5F5F5F5F5F5F5F5F5F5F5F5F5F5F5F5F5F5F5F5F5F5F5F5F5F5F5F5F5F5F5F5F5E2F5F5E2F5F5F5F5F5E2E2E2F5F5F5F5F5E2F5F5E2F5F5F5F5F5F5F5F5F5F5F5F5F5F5F5F5F5F5F5F5F5F5F5F5F5F5F5F5F5F5F5F5F5F5F5F5F5F5F5F5F5F5F5F5
310
F5F5F5F5F5F5F5F5F5F5F5F5F5F5F5F5F5F5F5F5F5F5F5F5F5F5F5F5F5F5F5F5F5F5F5F5F5F5F5F5F5F5F5F5F5F5F5F5F5F5F5F5F5F5F5F5F5F5F5F5F5F5F5F5F5F5F5F5F5F5F5F5F5F5F5F5F5F5F5F5F5F5F5F5F5F5F5F5F5F5F5F5F5F5F5F5F5F5F5F5F5F5F5F5F5F5F5F5F5F5F5F5F5F5F5E2F5F5E2F5F5F5F5F5E2E2E2
310
F5F5F5F5F5E2F5F5E2F5F5F5F5F5F5F5F5F5F5F5F5F5F5F5F5F5F5F5F5F5F5F5F5F5F5F5F5F5F5F5F5F5F5F5F5F5F5F5F5F5F5F5F5F5F5F5F5F5F5F5F5F5F5F5F5F5F5F5F5F5F5F5F5F5F5F5F5F5F5F5F5F5F5F5F5F5F5F5F5F5F5F5F5F5F5F5F5F5F5F5F5F5F5F5F5F5F5F5F5F5F5F5F5F5F5F5F5F5F5F5F5F5F5F5F5F5F5
310
F5F5F5F5F5F5F5F5F5F5F5F5F5F5F5F5F5F5F5F5F5F5F5F5F5F5F5F5F5F5F5F5F5F5F5F5F5F5F5F5F5E2F5F5E2F5F5F5F5F5E2E2E2F5F5F5F5F5E2F5F5E2F5F5F5F5F5F5F5F5F5F5F5F5F5F5F5F5F5F5F5F5F5F5F5F5F5F5F5F5F5F5F5F5F5F5F5F5F5F5F5F5F5F5F5F5F5F5F5F5F5F5F5F5F5F5F5F5F5F5F5F5F5F5F5F5F5
310
F5F5F5F5F5F5F5F5F5F5F5F5F5F5F5F5F5F5F5F5F5F5F5F5F5F5F5F5F5F5F5F5F5F5F5F5F5F5F5F5F5F5F5F5F5F5F5F5F5F5F5F5F5F5F5F5F5F5F5F5F5F5F5F5F5F5F5F5F5F5F5F5F5F5F5F5F5F5F5F5F5F5F5F5F5F5F5F5F5F5F5F5F5F5E2F5F5E2F5F5F5F5F5E2E2E2F5F5F5F5F5E2E2E2E2F5F5F5F5F5F5F5F5F5F5F5F5
310
F5F5F5F5F5F5F5F5F5F5F5F5F5F5F5F5F5F5F5F5F5F5F5F5F5F5F5F5F5F5F5F5F5F5F5F5F5F5F5F5F5F5F5F5F5F5F5F5F5F5F5F5F5F5F5F5F5F5F5F5F5F5F5F5F5F5F5F5F5F5F5F5F5F5F5F5F5F5F5F5F5F5F5F5F5F5F5F5F5F5F5F5F5F5F5F5F5F5F5F5F5F5F5F5F5F5F5F5F5F5F5F5F5F5F5F5F5F5F5F5F5F5F5F5F5F5F5
310
F5F5F5F5F5F5F5F5F5F5F5F5F5F5F5F5F5F5F5F5E2E2E2E2F5F5F5F5F5E2E2E2F5F5F5F5F5E2E2E2E2F5F5F5F5F5F5F5F5F5F5F5F5F5F5F5F5F5F5F5F5F5F5F5F5F5F5F5F5F5F5F5F5F5F5F5F5F5F5F5F5F5F5F5F5F5F5F5F5F5F5F5F5F5F5F5F5F5F5F5F5F5F5F5F5F5F5F5F5F5F5F5F5F5F5F5F5F5F5F5F5F5F5F5F5F5F5
310
F5F5F5F5F5F5F5F5F5F5F5F5F5F5F5F5F5F5F5F5F5F5F5F5F5F5F5F5F5F5F5F5F5F5F5F5F5F5F5F5F5F5F5F5F5F5F5F5F5F5F5F5F5F5F5F5F5F5F5F5F5F5F5F5F5F5F5F5F5F5F5F5F5E2E2E2E2F5F5F5F5F5E2E2E2F5F5F5F5F5E2F5F5E2F5F5F5F5F5F5F5F5F5F5F5F5F5F5F5F5F5F5F5F5F5F5F5F5F5F5F5F5F5F5F5F5F5
310
F5F5F5F5F5F5F5F5F5F5F5F5F5F5F5F5F5F5F5F5F5F5F5F5F5F5F5F5F5F5F5F5F5F5F5F5F5F5F5F5F5F5F5F5F5F5F5F5F5F5F5F5F5F5F5F5F5F5F5F5F5F5F5F5F5F5F5F5F5F5F5F5F5F5F5F5F5F5F5F5F5F5F5F5F5F5F5F5F5F5F5F5F5F5F5F5F5F5F5F5F5F5F5F5F5F5F5F5F5F5F5F5F5F5F5F5F5F5F5F5F5F5F5F5F5F5E2
310
F5F5E2F5F5F5F5F5E2E2E2F5F5F5F5F5E2F5F5E2F5F5F5F5F5F5F5F5F5F5F5F5F5F5F5F5F5F5F5F5F5F5F5F5F5F5F5F5F5F5F5F5F5F5F5F5F5F5F5F5F5F5F5F5F5F5F5F5F5F5F5F5F5F5F5F5F5F5F5F5F5F5F5F5F5F5F5F5F5F5F5F5F5F5F5F5F5F5F5F5F5F5F5F5F5F5F5F5F5F5F5F5F5F5F5F5F5F5F5F5F5F5F5F5F5F5F5
310
F5F5F5F5F5F5F5F5F5F5F5F5F5F5F5F5F5F5F5F5F5F5F5F5F5F5F5F5F5F5F5F5F5F5F5F5F5F5F5F5F5F5F5F5F5F5F5F5F5F5F5F5E2F5F5E2F5F5F5F5F5E2E2E2F5F5F5F5F5E2F5F5E2F5F5F5F5F5F5F5F5F5F5F5F5F5F5F5F5F5F5F5F5F5F5F5F5F5F5F5F5F5F5F5F5F5F5F5F5F5F5F5F5F5F5F5F5F5F5F5F5BEF5F5F5F5F5
310
F5F5F5F5F5F5F5F5F5F5F5F5F5F5F5F5F5F5F5F5F5F5F5F5F5F5F5F5F5F5F5F5F5F5F5F5F5F5F5F5F5F5F5F5F5F5F5F5F5F5F5F5F5F5F5F5F5F5F5F5F5F5F5F5F5F5F5F5F50F0F0F0F0F0FF5F5F5F5F5F5F5F5F5F5F5F5F5F5F5F5F5F5F5F5F5F5F5F5F5F5F5F5F5F5E2F5F5E2F5F5F5F5F5E2E2E2F5F5F5F5F5E2F5F5E2F5
310
F5F5F5F5F5F5F5F5F5F5F5F5F5F5F5F5F5F5F5F5F5F5F5F5F5F5F5F5F5F5F5F5F5F5F5F5F5F5F5F5F5F5F5F5F5F5F5BEF5F5F5F5F5F5F5F5F5F5F5F5F5F5F5F5F5F5F5F5F5F5F5F5F5F5F5F5F5F5F5F5F5F5F5F5F5F5F5F5F5F5F5F5F5F5F5F5F5F5F5F5F5F5F5F5F5F5F5F5F5F5F5F5F5F5F5F5F5F5F5F5F50FF5F5F50F0F
310
0FF5F5F5F5F5F5F5F5F5F5F5F5F5F5F5F5F5F5F5F5F5F5F5F5F5F5F5F5F5F5E2F5F5E2F5F5F5F5F5E2E2E2F5F5F5F5F5E2F5F5E2F5F5F5F5F5F5F5F5F5F5F5F5F5F5F5F5F5F5F5F5F5F5F5F5F5F5F5F5F5F5F5F5F5F5F5F5F5F5F5F5F5F5F5F5F5F5F5F5BEF5F5F5F5F5F5F5F5F5F5F5F5F5F5F5F5F5F5F5F5F5F5F5F5F5F5
310
F5F5F5F5F5F5F5F5F5F5F5F5F5F5F5F5F5F5F5F5F5F5F5F5F5F5F5F5F5F5F5F5F5F5F5F5F5F5F5F5F5F5F5F5F5F50FF5F5F5F5F5F5F5F5F5F5F5F5F5F5F5F5F5F5F5F5F5F5F5F5F5F5F5F5F5F5F5F5F5F5F5F5F5E2F5F5E2F5F5F5F5F5E2E2E2F5F5F5F5F5E2F5F5E2F5F5F5F5F5F5F5F5F5F5F5F5F5F5F5F5F5F5F5F5F5F5
310
F5F5F5F5F5F5F5F5F5F5F5F5F5F5F5F5F5F5F5F5F5F5F5F5E2E2E2E2E2E2F5F5F5F5F5F5F5F5F5F5F5F5F5F5F5F5F5F5F5F5F5F5E2E2E2E2E2F5F5F5F5F5F5F5F5F5F5F5F5F5F5F5F5F5F5F5F5F5F5F5F5F5F5F5F5F5F5F5F5F5F5F5F5F5F5F5F5F50FF5F5F5F5F5F5F5F5F5F5F5F5F5F5F5F5F5F5F5F5F5F5F5F5F5F5F5F5
310
F5F5F5F5F5F5F5F5F5F5E2F5F5E2F5F5F5F5F5E2E2E2F5F5F5F5F5E2F5F5E2F5F5F5F5F5F5F5F5F5F5F5F5F5F5F5F5F5F5F5F5F5F5F5F5F5F5F5F5F5F5F5F5F5F5F5F5F5F5F5F5F5F5F5F5E2E2F5F5BEF5F5E2E2F5F5F5F5F5F5F5F5F5F5F5F5F5F5F5F5F5F5F5F5F5E2F5F5F5E2F5F5F5F5F5F5F5F5F5F5F5F5F5F5F5F5F5
310
F5F5F5F5F5F5F5F5F5F5F5F5F5F5F5F5F5F5F5F5F5F5F50FF5F5F5F5F5F5F5F5F5F5F5F5F5F5F5F5F5F5F5F5F5F5F5F5F5F5F5F5F5F5F5F5F5F5F5F5F5F5F5E2F5F5E2F5F5F5F5F5E2E2E2F5F5F5F5F5E2F5F5E2F5F5F5F5F5F5F5F5F5F5F5F5F5F5F5F5F5F5F5F5F5F5F5F5F5F5F5F5F5F5F5F5F5F5F5F5F5F5F5F5F5F5F5
310
E2F5F5F5F5BEF5F5F5F5E2F5F5F5F5F5F5F5F5F5F5F5F5F5F5F5F5F5F5F5E2E2F5F5F5E2F5F5F5F5F5F5F5F5F5F5F5F5F5F5F5F5F5F5F5F5F5F5F5F5F5F5F5F5F5F5F5F5F5F5F5F5F5F50F0FF5F5F5F5F5F5F5F5F5F5F5F5F5F5F5F5F5F5F5F5F5F5F5F5F5F5F5F5F5F5F5F5F5F5F5F5F5F5F5F5E2F5F5E2F5F5F5F5F5E2E2
310
E2F5F5F5F5F5F5F5F5E2F5F5F5F5F5F5F5F5F5F5F5F5F5F5F5F5F5F5F5F5F5F5F5F5F5F5F5F5F5F5F5F5F5F5F5F5F5F5F5F5F5F5E2E2F5F5F5F5BEF5F5F5F5F5E2F5F5F5F5F5F5F5F5F5F5F5F5F5F5F5F5F5F5E2F5F5F5F5E2E2E2E2E2E2E2E2E2E2E2E2E2E2E2E2E2E2E2E2E2E2E2E2E2E2E2E2E2E2E2E2E2E2E2E2E2E2E2
310
E2E2E2E2E2E2E2E2E2F5F5F5F5F5F5F5F5F5F5F5F5F5F5F5F5F5F5F5F5F5F5F5F5F5F5F5F5F5F5F5F5F5E2F5F5F5F5F5F5F5F5E2E2E2F5F5F5F5F5F5F5F5E2F5F5F5F5F5F5F5F5F5F5F5F5F5F5F5F5F5F5F5F5F5F5F5F5F5F5F5F5F5F5F5F5F5F5F5F5F5F5F5F5F5F5E2F5F5F5F5F5E2E2F5F5F5F5F5E2F5F5F5F5F5F5F5F5
310
F5F5F5F5F5F5F5F5F5ECF5F5F5F5E2F5F5F5F5F5F5F5F5F5F5F5F5F5F5F5F5F5F5F5F5F5F5F5F5F5F5F5F5F5E2E2E2E2E2E2E2E2E2E2E2E2E2E2E2E2E2E2E2F5F5F5F5F5F5F5F5F5F5F5F5F5F5F5F5F5F5F5F5F5F5F5F5F5F5F5F5F5F5F5F5E2F5F5F5F5F5F5F5F5E2E2E2F5F5F5F5F5F5F5F5E2F5F5F5F5F5F5F5F5F5F5F5
310
F5F5F5F5F5F5F5F5F5F5F5F5F5F5F5F5F5F5F5F5F5F5F5F5F5F5F5F5F5F5E2F5F5F5F5F5F5E2E2F5F5F5F5F5E2F5F5F5F5F5F5F5F5F5F5F5F5F5F5F5F5F5E2ECECF5F5E2F5F5F5F5F5F5F5F5F5F5F5F5F5F5F5F5F5F5F5F5F5F5F5F5F5F5F5F5F5E2F5F5F5F5F5F5F5F5F5F5F5F5F5F5F5F5E2E2F5F5F5F5F5F5F5F5F5F5F5
310
F5F5F5F5F5F5F5F5F5F5F5F5F5F5F5F5F5F5F5F5F5E2F5F5F5F5F5F5F5F5E2E2E2F5F5F5F5F5F5F5F5E2F5F5F5F5F5F5F5F5F5F5F5F5F5F5F5F5F5F5F5F5F5F5F5F5F5F5F5F5F5F5F5F5F5F5F5F5F5F5F5F5F5E2F5F5F5F5F5E2BEE2F5F5F5F5F5E2F5F5F5F5F5F5F5F5F5F5F5F5F5F5F5F5E2F5F5ECF5F5E2F5F5F5F5F5F5
310
F5F5F5F5F5F5F5F5F5F5F5F5F5F5F5F5F5F5F5F5F5F5F5E2F5F5F5F5F5F5F5F5F5F5F5F5F5F5F5F5E2E2F5F5F5F5F5F5F5F5F5F5F5F5F5F5F5F5F5F5F5F5F5F5F5F5F5F5F5F5F5F5F5F5E2F5F5F5F5F5F5F5F5E2E2E2F5F5F5F5F5E2E2E2E2F5F5F5F5F5F5F5F5F5F5F5F5F5F5F5F5F5F5F5F5F5F5F5F5F5F5F5F5F5F5F5F5
310
F5F5F5F5F5F5BEBEBEE2BEBEBEE2E2E2BEBEE2E2BEBEBEE2BEBEBEF5F5F5F5F5F5F5F5F5BEBEBEBEE2BEBEECECBEE2BEBEBEBEBEBEBEBEBEBEBEBEBEBEBEBEBEBEBEBEBEBEBEBEBEBEBEBEBEE2BEBEBEBEBEBEBEBEBEBEBEBEBEBEBEBEE2E2BEBEBEBEF5F5F5F5F5F5F5F5F5F5F5F5F5F5F5F5F5F5F5F5F5F5F5F5F5F5F5F5
310
E2E2E2E2F5F5F5F5F5E2E2E2F5F5F5F5F5F5F5F5E2F5F5F5F5F5F5F5F5F5F5F5F5F5F5F5F5F5F5F5F5F5F5F5F5F5F5F5F5F5F5F5F5F5F5F5F5F5F5F5F5F5E2F5F5F5F5F5E2BEE2F5F5F5F5F5E2F5F5F5F5F5F5F5F5F5F5F5F5F5F5F5F5E2F5F5ECF5F5E2F5F5F5F5F5F5F5F5F5F5F5F5F5F5F5F5F5F5F5F5F5F5F5F5F5F5F5
310
F5F5E2F5F5F5F5F5F5F5F5F5F5F5F5F5F5F5F5E2E2F5F5F5F5F5F5F5F5F5F5F5F5F5F5F5F5F5F5F5F5F5F5F5F5F5F5F5F5F5F5F5F5E2F5F5F5F5F5F5F5F5E2E2E2F5F5F5F5F5F5F5F5E2F5F5F5F5F5F5F5F5F5F5F5F5F5F5F5F5F5F5F5F5F5F5F5F5F5F5F5F5F5F5F5F5F5F5F5F5F5F5F5F5F5E2F5F5F5F5F5F5E2E2F5F5F5
310
F5F5E2F5F5F5F5F5F5F5F5F5F5F5F5F5F5F5F50FE2ECECF5F5E2F5F5F5F5F5F5F5F5F5F5F5F5F5F5F5F5F5F5F5F5F5F5F5F5F5F5F5F5F5E2F5F5F5F5F5F5F5F5F5F5F5F5F5F5F5F5E2E2F5F5F5F5F5F5F5F5F5F5F5F5F5F5F5F5F5F5F5F5F5F5F5F5F5F5F5F5F5F5F5F5E2F5F5F5F5F5F5F5F5E2E2E2F5F5F5F5F5F5F5F5E2
310
F5F5F5F5F5F5F5F5F5F5F5F5F5F5F5F5F5F5F5F5F5F5F5F5F5F5F5F5F5F5F5F5F5F5F5F5F5F5F5F5F50FE2F5F5F5F5F5E2E2F5F5F5F5F5E2F5F5F5F5F5F5F5F5F5F5F5F5F5F5F5F50FECF5F5F5F5E2F5F5F5F5F5F5F5F5F5F5F5F5F5F5F5F5F5F5F5F5F5F5F5F5F5F5F5F5F5E2E2E2E2E2E2E2E2E2E2E2E2E2E2E2E2E2E2E2
310
F5F5F5F5F5F5F5F5F5F5F5F5F5F5F5F5F5F5F5F5F5F5F5F5F5F5F5F5F5F5F5F5E2F5F5F5F5F5F5F5F5E2E2E2F5F5F5F5F5F5F5F5E2F5F5F5F5F5F5F5F5F5F5F5F5F5F5F5F5F5F5F5F5F5F5F5F5F5F5F5F5F5F5F5F5F5F5F5F5F5F5F5F5F50FE2E2F5F5F5F5BEF5F5F5F5F5E20FF5F5F5F5F5F5F5F5F5F5F5F5F5F5F5F50FE2
310
F5F5F5F5E2E2E2E2E2E2E2E2E2E2E2E2E2E2E2E2E2E2E2E2E2E2E2E2E2E2E2E2E2E2E2E2E2E2E2E2E2E2E2E2E2E2E2E2E2E2E2E20FF5F5F5F5F5F5F5F5F5F5F5F5F5F5F5F5F5F5F5F5F5F5F5F5F5F5F5F5F5F5F5F5E2F5F5F5F5F5F5F5F5E2E2E2F5F5F5F5F5E2F5F5E2F5F5F5F5F5F5F5F5F5F5F5F5F5F5F5F5F5F5F5F5F5
310
F5F5F5F5F5F5F5F5F5F5F5F5F5F5F5F5F5F5F5F50FF5E2F5F5F5F5BEF5F5F5F5E2F50FF5F5F5F5F5F5F5F5F5F5F5F5F5F5F5F50FE2E2F5F5F5E2F5F5F5F5F5F5F5F5F5F5F5F5F5F5F5F5F5F5F5F5F5F5F5F5F5F5F5F5F50FF5F5F5F5F5F5F5F5F5F5F5F5F5F5F5F5F50FF5F5F5F5F5F5F5F5F5F5F5F5F5F5F5F5F5F5F5F5F5
310
F5F5F5F5F5F5F5F5F5F5F5E2F5F5E2F5F5F5F5F5E2E2E2F5F5F5F5F5E2F5F5E2F5F5F5F5F5F5F5F5F5F5F5F5F5F5F5F5F5F5F5F5F5F5F5F5F5F5F5F5F5F5F5F5F5F5F5F5F5F5F5F5F50FF5F5E2E2F5F5BEF5F5E2E2F5F50FF5F5F5F5F5F5F5F5F5F5F5F5F5F5F5F50FF5E2F5F5F5E2F5F5F5F5F5F5F5F5F5F5F5F5F5F5F5F5
310
F5F5F5F5F5F5F5F5F5F5F5F5F50FF5F5F5F5F5F5F5F5F5F5F5F5F5F5F5F5F50FF5F5F5F5F5F5F5F5F5F5F5F5F5F5F5F5F5F5F5F5F5F5F5F5F5F5F5F5F5F5F5F5E2F5F5E2F5F5F5F5F5E2E2E2F5F5F5F5F5E2F5F5E2F5F5F5F5F5F5F5F5F5F5F5F5F5F5F5F5F5F5F5F5F5F5F5F5F5F5F5F5F5F5F5F5F5F5F5F5F5F5F5F5F50F
310
F5F5F5F5E2E2E2E2E2E2F5F5F50FF5F5F5F5F5F5F5F5F5F5F5F5F5F5F5F50FF5E2E2E2E2E2F5F5F5F5F5F5F5F5F5F5F5F5F5F5F5F5F5F5F5F5F5F5F5F5F5F5F5F5F50FF5F5F5F5F5F5F5F5F5F5F5F5F5F5F5F5F50FF5F5F5F5F5F5F5F5F5F5F5F5F5F5F5F5F5F5F5F5F5F5F5F5F5F5F5F5F5F5F5F5E2F5F5E2F5F5F5F5F5E2
310
E2E2F5F5F5F5F5E2F5F5E2F5F5F5F5F5F5F5F5F5F5F5F5F5F5F5F5F5F5F5F5F5F5F5F5F5F5F5F5F5F5F5F5F5F5F5F5F5F5F5F5F50FF5F5F5F5F5F5BEF5F5F5F5F5F50FF5F5F5F5F5F5F5F5F5F5F5F5F5F5F5F50FF5F5F5F5F50FF5F5F5F5F5F5F5F5F5F5F5F5F5F5F5F5F5F5F5F5F5F5F5F5F5F5F5F5F50FF5F5F5F5F5F5F5
310
F5F5F5F5F5F5F5F5F5F50FF5F5F5F5F5F5F5F5F5F5F5F5F5F5F5F5F5F5F5F5F5F5F5F5F5F5F5F5F5F5F5F5E2F5F5E2F5F5F5F5F5E2E2E2F5F5F5F5F5E2F5F5E2F5F5F5F5F5F5F5F5F5F5F5F5F5F5F5F5F5F5F5F5F5F5F5F5F5F5F5F5F5F5F5F5F5F5F5F5F5F5F5F5F50FF5F5F5F5F5F5BEF5F5F5F5F5F50FF5F5F5F5F5F5F5
310
F5F5F5F5F5F5F5F5F50FF5F5F5F5F50FF5F5F5F5F5F5F5F5F5F5F5F5F5F5F5F5F5F5F5F5F5F5F5F5F5F5F5F5F50F0FF5F5F5F5F5F5F5F5F5F5F5F5F5F5F50F0FF5F5F5F5F5F5F5F5F5F5F5F5F5F5F5F5F5F5F5F5F5F5F5F5F5F5F5F5F5F5F5F5E2F5F5E2F5F5F5F5F5E2E2E2F5F5F5F5F5E2F5F5E2F5F5F5F5F5F5F5F5F5F5
310
F5F5F5F5F5F5F5F5F5F5F5F5F5F5F5F5F5F5F5F5F5F5F5F5F5F5F5F5F5F5F50FF5F5F5F5F5F5BEF5F5F5F5F5F50FF5F5F5F5F5F5F5F5F5F5F5F5F5F5F5F50FF5F5F5F5F50FF5F5F5F5F5F5F5F5F5F5F5F5F5F5F5F5F5F5F5F5F5F5F5F5F5F5F5F5F50F0F0F0F0F0F0F0F0F0F0F0F0F0F0F0F0F0F0FF5F5F5F5F5F5F5F5F5F5
310
F5F5F5F5F5F5F5F5F5F5F5F5F5F5F5F5F5F5F5F5F5F5E2F5F5E2F5F5F5F5F5E2E2E2F5F5F5F5F5E2F5F5E2F5F5F5F5F5F5F5F5F5F5F5F5F5F5F5F5F5F5F5F5F5F5F5F5F5F5F5F5F5F5F5F5F5F5F5F5F5F5F5F5F50FF5F5F5F5F5F5F5F5F5F5F5F5F50FF5F5F5F5F5F5F5F5F5F5F5F5F5F5F5F50FF5F5F5F5F50FF5F5F5F5F5
310
F5F5F5F5F5F5F5F5F5F5F5F5F5F5F5F5F5F5F5F5F5F5F5F5F5F5F5F5F5F5F5F50F0F0FF5F5F5F5F5F5F50FF5F5F5F5F5F5F5F5F5F5F5F5F5F5F5F5F5F5F5F5F5F5F5F5F5F5F5F5F5F5F5F5E2F5F5E2F5F5F5F5F5E2E2E2F5F5F5F5F5E2F5F5E2F5F5F5F5F5F5F5F5F5F5F5F5F5F5F5F5F5F5F5F5F5F5F5F5F5F5F5F5F5F5F5
310
F5F5F5F5F5F5F5F5F5F50FF5F5F5F5F5F5F5F5F5F5F5F5F50FF5F5F5F5F5F5F5F5F5F5F5F5F5F5F5F50FF5F5F5F5F50FF5F5F5F5F5F5F5F5F5F5F5F5F5F5F5F5F5F5F5F5F5F5F5F5F5F5F5F5F5F5F5F5F5F5F5F5F50F0F0FF5F5F5F5F5F5F50FF5F5F5F5F5F5F5F5F5F5F5F5F5F5F5F5F5F5F5F5F5F5F5F5F5F5F5F5F5F5F5
310
F5E2F5F5E2F5F5F5F5F5E2E2E2F5F5F5F5F5E2E2E2E2F5F5F5F5F5F5F5F5F5F5F5F5F5F5F5F5F5F5F5F5F5F5F5F5F5F5F5F5F5F5F5F5F5F5F5F5F5F5F5F5F50FF5F5F5F5F5F5F5F5F5F5F5F5F50FF5F5F5F5F5F5F5F5F5F5F5F5F5F5F5F50FF5F5F5F5F50FF5F5F5F5F5F5F5F5F5F5F5F5F5F5F5F5F5F5F5F5F5F5F5F5F5F5
310
F5F5F5F5F5F5F5F5F5F5F5F5F5F5F5F5F5F5F5F5F50FF5F5F5F5F5F5F5F5F5F5F5F5F5F5F5F5F5F5F5F5F5F5F5F5F5F5F5F5F5F5F5F5E2E2E2E2F5F5F5F5F5E2E2E2F5F5F5F5F5E2E2E2E2F5F5F5F5F5F5F5F5F5F5F5F5F5F5F5F5F5F5F5F5F5F5F5F5F5F5F5F5F5F5F5F5F5F5F5F5F5F5F5F5F50FF5F5F5F5F5F5F5F5F5F5
310
F5F5F50FF5F5F5F5F5F5F5F5F5F5F5F5F5F5F5F50FF5F5F5F5F50FF5F5F5F5F5F5F5F5F5F5F5F5F5F5F5F5F5F5F5F5F5F5F5F5F5F5F5F5F5F5F5F5F5F5F5F5F5F5F5F5F5F5F5F5F5F5F50FF5F5F5F5F5F5F5F5F5F5F5F5F5F5F5F5F5F5F5F5F5F5F5F5F5F5F5F5F5F5F5F5E2E2E2E2F5F5F5F5F5E2E2E2F5F5F5F5F5E2F5F5
310
E2F5F5F5F5F5F5F5F5F5F5F5F5F5F5F5F5F5F5F5F5F5F5F5F5F5F5F5F5F5F5F5F5F5F5F5F5F5F5F5F5F50F0FF5F5F5F5F5F5F5F5F5F5F50F0FF5F5F5F5F5F5F5F5F5F5F5F5F5F5F5F50FF50FF50FF50F0FF5F5F5F5F5F5F5F5F5F5F5F5F5F5F5F5F5F5F5F5F5F5F5F5F5F5F5F5F5F5F5F5F5F5F5F5F5F5F5F5F5F5F5F5F50F
310
0FF5F5F5F5F5F5F5F5F5F5F5F5F5F5F5F5F5F5F5F5F5F5F5F5F5F5F5F5F5F5F5F5E2F5F5E2F5F5F5F5F5E2E2E2F5F5F5F5F5E2F5F5E2F5F5F5F5F5F5F5F5F5F5F5F5F5F5F5F5F5F5F5F5F5F5F5F5F5F5F5F5F5F5F5F5F5F5F5F5F5F5F5F5F50F0F0F0F0F0F0F0F0F0F0F0F0F0F0FF5F5F5F5F5F5F5F5F5F5F5F5F5F5F5F50F
310
0F0F0F0F0F0F0F0F0F0F0F0F0F0F0F0F0F0F0F0F0F0F0F0F0F0F0F0F0F0F0F0F0F0F0F0F0F0F0F0F0F0F0F0F0F0F0F0F0F0F0F0F0F0FF5F5F5F5F5F5F5F5F5F5F5F5F5F5F5F5F5F5F5F5F5F5F5F5F5F5F5F5F5F5F5F5E2F5F5E2F5F5F5F5F5E2E2E2F5F5F5F5F5E2F5F5E2F5F5F5F5F5F5F5F5F5F5F5F5F5F5F5F5F5F5F5F5
310
F5F5F5F5F5F5F5F5F5F5F5F5F5F5F5F5F5F5F5F5F5F5F5F5F5F50FF50F0F0FF5F5F5F5F5F5F5F5F5F5F5F5F5F5F5F5F5F5F5F5F5F50F0FF50F0FF5F5F5F5F5F5F5F5F5F5F5F5F5F5F5F5F5F5F5F5F5F50F0F0F0FF5F5F5F5F5F5F5F5F5F5F5F5F5F5F5F5F5F5F5F5F5F5F5F5F5F5F5F5F5F5F5F5F5F5F5F5F5F5F5F5F5F5F5
310
F5F5F5F5F5F5F5F5F5F5F5F5E2F5F5E2F5F5F5F5F5E2E2E2F5F5F5F5F5E2F5F5E2F5F5F5F5F5F5F5F5F5F5F5F5F5F5F5F5F5F5F5F5F5F5F5F5F5F5F5F5F5F5F5F5F5F5F5F5F5F5F5F5F5F5F5F5F5F50F0F0F0F0FF5F5F5F5F5F5F5F5F5F5F5F5F5F5F5F5F5F5F5F5F5F5F50FF50FF5F5F5F5F5F5F5F5F5F5F5F5F5F5F5F5F5
310
F5F5F5F5F5F5F50F0F0FF5F5F5F5F5F5F5F5F5F5F5F5F5F5F5F5F5F5F5F5F5F5F5F5F5F5F5F5F5F5F5F5F5F5F5F5F5F5F5F5F5F5F5F5F5F5F5F5F5F5F5F5F5F5F5E2F5F5E2F5F5F5F5F5E2E2E2F5F5F5F5F5E2F5F5E2F5F5F5F5F5F5F5F5F5F5F5F5F5F5F5F5F5F5F5F5F5F5F5F5F5F5F5F5F5F5F5F5F5F5F5F5F5F5F5F5F5
310
F5F5F5F5F5F5F5F5F5F5F5F5F5F5F5F5F5F5F5F5F5F5F5F5F5F5F5F5F5F5F5F5F5F5F5F5F5F5F5F5F5F5F5F5F5F5F5F5F5F5F5F5F5F5F5F5F5F5F5F5F5F5F5F5F5F5F5F5F5F5F5F5F5F5F5F5F5F5F5F5F5F5F5F5F5F5F5F5F5F5F5F5F5F5F5F5F5F5F5F5F5F5F5F5F5F5F5F5F5F5F5F5F5F5F5F5F5F5E2F5F5E2F5F5F5F5F5
310
E2E2E2F5F5F5F5F5F5F5F5E2F5F5F5F5F5F5F5F5F5F5F5F5F5F5F5F5F5F5F5F5F5F5F5F5F5F5F5F5F5F5F5F5F5F5F5F5F5F5F5F5F5F5F5F5F5F5F5F5F5F5F5F5F5F5F5F5F5F5F5F5F5F5F5F5F5F5F5F5F5F5F5F5F5F5F5F5F5F5F5F5F5F5F5F5F5F5F5F5F5F5F5F5F5F5F5F5F5F5F5F5F5F5F5F5F5F5F5F5F5F5F5F5F5F5F5
310
F5F5F5F5F5F5F5F5F5F5F5F5F5F5F5F5F5F5F5F5F5F5F5F5F5F5F5F5F5F5F5F5F5F5F5F5F5F5F5F5F5F5F5F5E2F5F5F5F5F5F5F5F5E2E2E2F5F5F5F5F5F5F5F5E2F5F5F5F5F5F5F5F5F5F5F5F5F5F5F5F5F5F5F5F5F5F5F5F5F5F5F5F5F5F5F5F5F5F5F5F5F5F5F5F5F5F5F5F5F5F5F5F5F5F5F5F5F5F5F5F5F5F5F5F5F5F5
310
F5F5F5F5F5F5F5F5F5F5F5F5F5F5F5F5F5F5F5F5F5F5F5F5F5F5F5F5F5F5F5F5F5F5F5F5F5F5F5F5F5F5F5F5F5F5F5F5F5F5F5F5F5F5F5F5F5F5F5F5F5F5F5F5F5F5F5F5F5F5F5F5F5F5F5F5F5F5F5F5F5F5F5F5F5F5F5F5F5F5F5F5F5F5F5F5F5E2F5F5F5F5F5F5F5F5E2E2E2F5F5F5F5F5F5F5F5E2F5F5F5F5F5F5F5F5F5
310
F5F5F5F5F5F5F5F5F5F5F5F5F5F5F5F5F5F5F5F5F5F5F5F5F5F5F5F5F5F5F5F5F5F5F5F5F5F5F5F5F5F5F5F5F5F5F5F5F5F5F5F5F5F5F5F5F5F5F5F5F5F5F5F5F5F5F5F5F5F5F5F5F5F5F5F5F5F5F5F5F5F5F5F5F5F5F5F5F5F5F5F5F5F5F5F5F5F5F5F5F5F5F5F5F5F5F5F5F5F5F5F5F5F5F5F5F5F5F5F5F5F5F5F5F5F5F5
310
F5F5F5F5F5F5F5F5F5F5F5F5F5F5F5F5F5F5F5F5F5F5F5E2F5F5F5F5F5F5F5F5E2E2E2F5F5F5F5F5F5F5F5E2F5F5F5F5F5F5F5F5F5F5F5F5F5F5F5F5F5F5F5F5F5F5F5F5F5F5F5F5F5F5F5F5F5F5F5F5F5F5F5F5F5F5F5F5F5F5F5F5F5F5F5F5F5F5F5F5F5F5F5F5F5F5F5F5F5F5F5F5F5F5F5F5F5F5F5F5F5F5F5F5F5F5F5
310
F5F5F5F5F5F5F5F5F5F5F5F5F5F5F5F5F5F5F5F5F5F5F5F5F5F5F5F5F5F5F5F5F5F5F5F5F5F5F5F5F5F5F5F5F5F5F5F5F5F5F5F5F5F5F5F5F5F5F5F5F5F5F5F5F5F5F5F5F5F5F5F5F5F5F5F5E2F5F5F5F5F5F5F5F5E2E2E2F5F5F5F5F5F5F5F5E2F5F5F5F5F5F5F5F5F5F5F5F5F5F5F5F5F5F5F5F5F5F5F5F5F5F5F5F5F5F5
310
F5F5F5F5F5F5F5F5F5F5F5F5F5F5F5F5F5F5F5F5F5F5F5F5F5F5F5F5F5F5F5F5F5F5F5F5F5F5F5F5F5F5F5F5F5F5F5F5F5F5F5F5F5F5F5F5F5F5F5F5F5F5F5F5F5F5F5F5F5F5F5F5F5F5F5F5F5F5F5F5F5F5F5F5F5F5F5F5F5F5F5F5F5F5F5F5F5F5F5F5F5F5F5F5F5F5F5F5F5F5F5F5F5F5F5F5F5F5F5F5F5F5F5F5F5F5F5
310
F5F5E2F5F5F5F5F5F5F5F5E2E2E2F5F5F5F5F5F5F5F5E2F5F5F5F5F5F5F5F5F5F5F5F5F5F5F5F5F5F5F5F5F5F5F5F5F5F5F5F5F5F5F5F5F5F5F5F5F5F5F5F5F5F5F5F5F5F5F5F5F5F5F5F5F5F5F5F5F5F5F5F5F5F5F5F5F5F5F5F5F5F5F5F5F5F5F5F5F5F5F5F5F5F5F5F5F5F5F5F5F5F5F5F5F5F5F5F5F5F5F5F5F5F5F5F5
310
F5F5F5F5F5F5F5F5F5F5F5F5F5F5F5F5F5F5F5F5F5F5F5F5F5F5F5F5F5F5F5F5F5F5F5F5F5F5F5F5F5F5F5F5F5F5F5F5F5F5F5F5F5F5F5E2F5F5F5F5F5F5F5F5E2E2E2F5F5F5F5F5F5F5F5E2F5F5F5F5F5F5F5F5F5F5F5F5F5F5F5F5F5F5F5F5F5F5F5F5F5F5F5F5F5F5F5F5F5F5F5F5F5F5F5F5F5F5F5F5F5F5F5F5F5F5F5
310
F5F5F5F5F5F5F5F5F5F5F5F5F5F5F5F5F5F5F5F5F5F5F5F5F5F5F5F5F5F5F5F5F5F5F5F5F5F5F5F5F5F5F5F5F5F5F5F5F5F5F5F5F5F5F5F5F5F5F5F5F5F5F5F5F5F5F5F5F5F5F5F5F5F5F5F5F5F5F5F5F5F5F5F5F5F5F5F5F5F5F5F5F5F5F5F5F5F5F5F5F5F5F5F5F5F5F5F5E2F5F5F5F5F5F5F5F5E2E2E2F5F5F5F5F5E2E2
310
E2E2F5F5F5F5F5F5F5F5F5F5F5F5F5F5F5F5F5F5F5F5F5F5F5F5F5F5F5F5F5F5F5F5F5F5F5F5F5F5F5F5F5F5F5F5F5F5F5F5F5F5F5F5F5F5F5F5F5F5F5F5F5F5F5F5F5F5F5F5F5F5F5F5F5F5F5F5F5F5F5F5F5F5F5F5F5F5F5F5F5F5F5F5F5F5F5F5F5F5F5F5F5F5F5F5F5F5F5F5F5F5F5F5F5F5F5F5F5F5F5F5F5F5F5F5F5
310
F5F5F5F5F5F5F5F5F5F5F5F5F5F5F5F5F5F5F5F5F5F5F5F5F5F5F5F5F5F5F5F5F5F5E2E2E2E2F5F5F5F5F5E2E2E2F5F5F5F5F5E2F5F5E2F5F5F5F5F5F5F5F5F5F5F5F5F5F5F5F5F5F5F5F5F5F5F5F5F5F5F5F5F5F5F5F5F5F5F5F5F5F5F5F5F5F5F5F5F5F5F5F5F5F5F5F5F5F5F5F5F5F5F5F5F5F5F5F5F5F5F5F5F5F5F5F5
310
F5F5F5F5F5F5F5F5F5F5F5F5F5F5F5F5F5F5F5F5F5F5F5F5F5F5F5F5F5F5F5F5F5F5F5F5F5F5F5F5F5F5F5F5F5F5F5F5F5F5F5F5F5F5F5F5F5F5F5F5F5F5F5F5F5F5F5F5F5F5F5F5F5F5F5F5F5F5F5F5F5F5F5F5F5F5F5E2F5F5E2F5F5F5F5F5E2E2E2F5F5F5F5F5E2F5F5E2F5F5F5F5F5F5F5F5F5F5F5F5F5F5F5F5F5F5F5
310
F5F5F5F5F5F5F5F5F5F5F5F5F5F5F5F5F5F5F5F5F5F5F5F5F5F5F5F5F5F5F5F5F5F5F5F5F5F5F5F5F5F5F5F5F5F5F5F5F5F5F5F5F5F5F5F5F5F5F5F5F5F5F5F5F5F5F5F5F5F5F5F5F5F5F5F5F5F5F5F5F5F5F5F5F5F5F5F5F5F5F5F5F5F5F5F5F5F5F5F5F5F5F5F5F5F5F5F5F5F5F5F5F5F5F5F5F5F5F5F5F5F5F5F5F5F5F5
310
F5F5F5F5F5F5F5F5F5F5F5F5F5E2F5F5E2F5F5F5F5F5E2E2E2F5F5F5F5F5E2F5F5E2F5F5F5F5F5F5F5F5F5F5F5F5F5F5F5F5F5F5F5F5F5F5F5F5F5F5F5F5F5F5F5F5F5F5F5F5F5F5F5F5F5F5F5F5F5F5F5F5F5F5F5F5F5F5F5F5F5F5F5F5F5F5F5F5F5F5F5F5F5F5F5F5F5F5F5F5F5F5F5F5F5F5F5F5F5F5F5F5F5F5F5F5F5
310
F5F5F5F5F5F5F5F5F5F5F5F5F5F5F5F5F5F5F5F5F5F5F5F5F5F5F5F5F5F5F5F5F5F5F5F5F5F5F5F5F5F5F5F5F5F5F5F5F5F5F5F5F5F5F5F5F5F5F5F5F5F5F5F5F5F5E2F5F5E2F5F5F5F5F5E2E2E2F5F5F5F5F5E2F5F5E2F5F5F5F5F5F5F5F5F5F5F5F5F5F5F5F5F5F5F5F5F5F5F5F5F5F5F5F5F5F5F5F5F5F5F5F5F5F5F5F5
310
F5F5F5F5F5F5F5F5F5F5F5F5F5F5F5F5F5F5F5F5F5F5F5F5F5F5F5F5F5F5F5F5F5F5F5F5F5F5F5F5F5F5F5F5F5F5F5F5F5F5F5F5F5F5F5F5F5F5F5F5F5F5F5F5F5F5F5F5F5F5F5F5F5F5F5F5F5F5F5F5F5F5F5F5F5F5F5F5F5F5F5F5F5F5F5F5F5F5F5F5F5F5F5F5F5F5F5F5F5F5F5F5F5F5F5F5F5F5F5E2F5F5E2F5F5F5F5
310
F5E2E2E2F5F5F5F5F5E2F5F5E2F5F5F5F5F5F5F5F5F5F5F5F5F5F5F5F5F5F5F5F5F5F5F5F5F5F5F5F5F5F5F5F5F5F5F5F5F5F5F5F5F5F5F5F5F5F5F5F5F5F5F5F5F5F5F5F5F5F5F5F5F5F5F5F5F5F5F5F5F5F5F5F5F5F5F5F5F5F5F5F5F5F5F5F5F5F5F5F5F5F5F5F5F5F5F5F5F5F5F5F5F5F5F5F5F5F5F5F5F5F5F5F5F5F5
310
F5F5F5F5F5F5F5F5F5F5F5F5F5F5F5F5F5F5F5F5F5F5F5F5F5F5F5F5F5F5F5F5F5F5F5F5F5F5F5F5F5F5F5F5F5E2F5F5E2F5F5F5F5F5E2E2E2F5F5F5F5F5E2F5F5E2F5F5F5F5F5F5F5F5F5F5F5F5F5F5F5F5F5F5F5F5F5F5F5F5F5F5F5F5F5F5F5F5F5F5F5F5F5F5F5F5F5F5F5F5F5F5F5F5F5F5F5F5F5F5F5F5F5F5F5F5F5
310
F5F5F5F5F5F5F5F5F5F5F5F5F5F5F5F5F5F5F5F5F5F5F5F5F5F5F5F5F5F5F5F5F5F5F5F5F5F5F5F5F5F5F5F5F5F5F5F5F5F5F5F5F5F5F5F5F5F5F5F5F5F5F5F5F5F5F5F5F5F5F5F5F5F5F5F5F5F5F5F5F5F5F5F5F5F5F5F5F5F5F5F5F5F5F5F5F5F5E2F5F5E2F5F5F5F5F5E2E2E2F5F5F5F5F5E2F5F5E2F5F5F5F5F5F5F5F5
310
F5F5F5F5F5F5F5F5F5F5F5F5F5F5F5F5F5F5F5F5F5F5F5F5F5F5F5F5F5F5F5F5F5F5F5F5F5F5F5F5F5F5F5F5F5F5F5F5F5F5F5F5F5F5F5F5F5F5F5F5F5F5F5F5F5F5F5F5F5F5F5F5F5F5F5F5F5F5F5F5F5F5F5F5F5F5F5F5F5F5F5F5F5F5F5F5F5F5F5F5F5F5F5F5F5F5F5F5F5F5F5F5F5F5F5F5F5F5F5F5F5F5F5F5F5F5F5
310
F5F5F5F5F5F5F5F5F5F5F5F5F5F5F5F5F5F5F5F5F5F5F5F5E2F5F5E2F5F5F5F5F5E2E2E2F5F5F5F5F5E2F5F5E2F5F5F5F5F5F5F5F5F5F5F5F5F5F5F5F5F5F5F5F5F5F5F5F5F5F5F5F5F5F5F5F5F5F5F5F5F5F5F5F5F5F5F5F5F5F5F5F5F5F5F5F5F5F5F5F5F5F5F5F5F5F5F5F5F5F5F5F5F5F5F5F5F5F5F5F5F5F5F5F5F5F5
310
F5F5F5F5F5F5F5F5F5F5F5F5F5F5F5F5F5F5F5F5F5F5F5F5F5F5F5F5F5F5F5F5F5F5F5F5F5F5F5F5F5F5F5F5F5F5F5F5F5F5F5F5F5F5F5F5F5F5F5F5F5F5F5F5F5F5F5F5F5F5F5F5F5F5F5F5F5E2F5F5E2F5F5F5F5F5E2E2E2F5F5F5F5F5E2F5F5E2F5F5F5F5F5F5F5F5F5F5F5F5F5F5F5F5F5F5F5F5F5F5F5F5F5F5F5F5F5
310
F5F5F5F5F5F5F5F5F5F5F5F5F5F5F5F5F5F5F5F5F5F5F5F5F5F5F5F5F5F5F5F5F5F5F5F5F5F5F5F5F5F5F5F5F5F5F5F5F5F5F5F5F5F5F5F5F5F5F5F5F5F5F5F5F5F5F5F5F5F5F5F5F5F5F5F5F5F5F5F5F5F5F5F5F5F5F5F5F5F5F5F5F5F5F5F5F5F5F5F5F5F5F5F5F5F5F5F5F5F5F5F5F5F5F5F5F5F5F5F5F5F5F5F5F5F5F5
310
F5F5F5E2F5F5E2F5F5F5F5F5E2E2E2F5F5F5F5F5E2F5F5E2F5F5F5F5F5F5F5F5F5F5F5F5F5F5F5F5F5F5F5F5F5F5F5F5F5F5F5F5F5F5F5F5F5F5F5F5F5F5F5F5F5F5F5F5F5F5F5F5F5F5F5F5F5F5F5F5F5F5F5F5F5F5F5F5F5F5F5F5F5F5F5F5F5F5F5F5F5F5F5F5F5F5F5F5F5F5F5F5F5F5F5F5F5F5F5F5F5F5F5F5F5F5F5
310
F5F5F5F5F5F5F5F5F5F5F5F5F5F5F5F5F5F5F5F5F5F5F5F5F5F5F5F5F5F5F5F5F5F5F5F5F5F5F5F5F5F5F5F5F5F5F5F5F5F5F5F5F5F5F5F5E2F5F5E2F5F5F5F5F5E2E2E2F5F5F5F5F5E2F5F5E2F5F5F5F5F5F5F5F5F5F5F5F5F5F5F5F5F5F5F5F5F5F5F5F5F5F5F5F5F5F5F5F5F5F5F5F5F5F5F5F5F5F5F5F5F5F5F5F5F5F5
310
F5F5F5F5F5F5F5F5F5F5F5F5F5F5F5F5F5F5F5F5F5F5F5F5F5F5F5F5F5F5F5F5F5F5F5F5F5F5F5F5F5F5F5F5F5F5F5F5F5F5F5F5F5F5F5F5F5F5F5F5F5F5F5F5F5F5F5F5F5F5F5F5F5F5F5F5F5F5F5F5F5F5F5F5F5F5F5F5F5F5F5F5F5F5F5F5F5F5F5F5F5F5F5F5F5F5F5F5F5E2F5F5E2F5F5F5F5F5E2E2E2F5F5F5F5F5E2
310
F5F5E2F5F5F5F5F5F5F5F5F5F5F5F5F5F5F5F5F5F5F5F5F5F5F5F5F5F5F5F5F5F5F5F5F5F5F5F5F5F5F5F5F5F5F5F5F5F5F5F5F5F5F5F5F5F5F5F5F5F5F5F5F5F5F5F5F5F5F5F5F5F5F5F5F5F5F5F5F5F5F5F5F5F5F5F5F5F5F5F5F5F5F5F5F5F5F5F5F5F5F5F5F5F5F5F5F5F5F5F5F5F5F5F5F5F5F5F5F5F5F5F5F5F5F5F5
310
F5F5F5F5F5F5F5F5F5F5F5F5F5F5F5F5F5F5F5F5F5F5F5F5F5F5F5F5F5F5F5F5F5F5F5E2F5F5E2F5F5F5F5F5E2E2E2F5F5F5F5F5E2E2E2E2F5F5F5F5F5F5F5F5F5F5F5F5F5F5F5F5F5F5F5F5F5F5F5F5F5F5F5F5F5F5F5F5F5F5F5F5F5F5F5F5F5F5F5F5F5F5F5F5F5F5F5F5F5F5F5F5F5F5F5F5F5F5F5F5F5F5F5F5F5F5F5
310
F5F5F5F5F5F5F5F5F5F5F5F5F5F5F5F5F5F5F5F5F5F5F5F5F5F5F5F5F5F5F5F5F5F5F5F5F5F5F5F5F5F5F5F5F5F5F5F5F5F5F5F5F5F5F5F5F5F5F5F5F5F5F5F5F5F5F5F5F5F5F5F5F5F5F5F5F5F5F5F5F5F5F5F5F5F5F5F5E2E2E2E2F5F5F5F5F5E2E2E2F5F5F5F5F5E2F5E2E2F5F5F5F5F5F5F5F5F5F5F5F5F5F5F5F5F5F5
310
F5F5F5F5F5F5F5F5F5F5F5F5F5F5F5F5F5F5F5F5F5F5F5F5F5F5F5F5F5F5F5F5F5F5F5F5F5F5F5F5F5F5F5F5F5F5F5F5F5F5F5F5F5F5F5F5F5F5F5F5F5F5F5F5F5F5F5F5F5F5F5F5F5F5F5F5F5F5F5F5F5F5F5F5F5F5F5F5F5F5F5F5F5F5F5F5F5F5F5F5F5F5F5F5F5F5F5F5F5F5F5F5F5F5F5F5F5F5F5F5F5F5F5F5F5F5F5
310
F5F5F5F5F5F5F5F5F5F5F5F5F5F5E2E2F5E2F5F5F5F5F5E2E2E2F5F5F5F5F5E2F5F5E2F5F5F5F5F5F5F5F5F5F5F5F5F5F5F5F5F5F5F5F5F5F5F5F5F5F5F5F5F5F5F5F5F5F5F5F5F5F5F5F5F5F5F5F5F5F5F5F5F5F5F5F5F5F5F5F5F5F5F5F5F5F5F5F5F5F5F5F5F5F5F5F5F5F5F5F5F5F5F5F5F5F5F5F5F5F5F5F5F5F5F5F5
310
F5F5F5F5F5F5F5F5F5F5F5F5F5F5F5F5F5F5F5F5F5F5F5F5F5F5F5F5F5F5F5F5F5F5F5F5F5F5F5F5F5F5F5F5F5F5F5F5F5F5F5F5F5F5F5F5F5F5F5F5F5F5F5F5F5F5F5E2F5F5E2F5F5F5F5F5E2E2E2F5F5F5F5F5F5F5F5E2F5F5F5F5F5F5F5F5F5F5F5F5F5F5F5F5F5F5F5F5F5F5F5F5F5F5F5F5F5F5F5F5F5F5F5F5F5F5F5
310
F5F5F5F5F5F5F5F5F5F5F5F5F5F5F5F5F5F5F5F5F5F5F5F5F5F5F5F5F5F5F5F5F5F5F5F5F5F5F5F5F5F5F5F5F5F5F5F5F5F5F5F5F5F5F5F5F5F5F5F5F5F5F5F5F5F5F5F5F5F5F5F5F5F5F5F5F5F5F5F5F5F5F5F5F5F5F5F5F5F5F5F5F5F5F5F5F5F5F5F5F5F5F5F5F5F5F5F5F5F5F5F5F5F5F5F5F5F5F5F5E2F5F5F5F5F5F5
310
F5F5E2E2E2F5F5F5F5F5F5F5F5E2F5F5F5F5F5F5F5F5F5F5F5F5F5F5F5F5F5F5F5F5F5F5F5F5F5F5F5F5F5F5F5F5F5F5F5F5F5F5F5F5F5F5F5F5F5F5F5F5F5F5F5F5F5F5F5F5F5F5F5F5F5F5F5F5F5F5F5F5F5F5F5F5F5F5F5F5F5F5F5F5F5F5F5F5F5F5F5F5F5F5F5F5F5F5F5F5F5F5F5F5F5F5F5F5F5F5F5F5F5F5F5F5F5
310
F5F5F5F5F5F5F5F5F5F5F5F5F5F5F5F5F5F5F5F5F5F5F5F5F5F5F5F5F5F5F5F5F5F5F5F5F5F5F5F5F5F5F5F5F5F5E2F5F5F5F5F5F5F5F5E2E2E2F5F5F5F5F5F5F5F5E2F5F5F5F5F5F5F5F5F5F5F5F5F5F5F5F5F5F5F5F5F5F5F5F5F5F5F5F5F5F5F5F5F5F5F5F5F5F5F5F5F5F5F5F5F5F5F5F5F5F5F5F5F5F5F5F5F5F5F5F5
310
F5F5F5F5F5F5F5F5F5F5F5F5F5F5F5F5F5F5F5F5F5F5F5F5F5F5F5F5F5F5F5F5F5F5F5F5F5F5F5F5F5F5F5F5F5F5F5F5F5F5F5F5F5F5F5F5F5F5F5F5F5F5F5F5F5F5F5F5F5F5F5F5F5F5F5F5F5F5F5F5F5F5F5F5F5F5F5F5F5F5F5F5F5F5F5F5F5F5F5E2F5F5F5F5F5F5F5F5E2E2E2F5F5F5F5F5F5F5F5E2F5F5F5F5F5F5F5
310
F5F5F5F5F5F5F5F5F5F5F5F5F5F5F5F5F5F5F5F5F5F5F5F5F5F5F5F5F5F5F5F5F5F5F5F5F5F5F5F5F5F5F5F5F5F5F5F5F5F5F5F5F5F5F5F5F5F5F5F5F5F5F5F5F5F5F5F5F5F5F5F5F5F5F5F5F5F5F5F5F5F5F5F5F5F5F5F5F5F5F5F5F5F5F5F5F5F5F5F5F5F5F5F5F5F5F5F5F5F5F5F5F5F5F5F5F5F5F5F5F5F5F5F5F5F5F5
310
F5F5F5F5F5F5F5F5F5F5F5F5F5F5F5F5F5F5F5F5F5F5F5F5F5E2F5F5F5F5F5F5F5F5E2E2E2F5F5F5F5F5F5F5F5E2F5F5F5F5F5F5F5F5F5F5F5F5F5F5F5F5F5F5F5F5F5F5F5F5F5F5F5F5F5F5F5F5F5F5F5F5F5F5F5F5F5F5F5F5F5F5F5F5F5F5F5F5F5F5F5F5F5F5F5F5F5F5F5F5F5F5F5F5F5F5F5F5F5F5F5F5F5F5F5F5F5
310
F5F5F5F5F5F5F5F5F5F5F5F5F5F5F5F5F5F5F5F5F5F5F5F5F5F5F5F5F5F5F5F5F5F5F5F5F5F5F5F5F5F5F5F5F5F5F5F5F5F5F5F5F5F5F5F5F5F5F5F5F5F5F5F5F5F5F5F5F5F5F5F5F5F5F5F5F5F5E2F5F5F5F5F5F5F5F5E2E2E2F5F5F5F5F5F5F5F5E2F5F5F5F5F5F5F5F5F5F5F5F5F5F5F5F5F5F5F5F5F5F5F5F5F5F5F5F5
310
F5F5F5F5F5F5F5F5F5F5F5F5F5F5F5F5F5F5F5F5F5F5F5F5F5F5F5F5F5F5F5F5F5F5F5F5F5F5F5F5F5F5F5F5F5F5F5F5F5F5F5F5F5F5F5F5F5F5F5F5F5F5F5F5F5F5F5F5F5F5F5F5F5F5F5F5F5F5F5F5F5F5F5F5F5F5F5F5F5F5F5F5F5F5F5F5F5F5F5F5F5F5F5F5F5F5F5F5F5F5F5F5F5F5F5F5F5F5F5F5F5F5F5F5F5F5F5
310
F5F5F5F5E2F5F5F5F5F5F5F5F5E2E2E2F5F5F5F5F5F5F5F5E2F5F5F5F5F5F5F5F5F5F5F5F5F5F5F5F5F5F5F5F5F5F5F5F5F5F5F5F5F5F5F5F5F5F5F5F5F5F5F5F5F5F5F5F5F5F5F5F5F5F5F5F5F5F5F5F5F5F5F5F5F5F5F5F5F5F5F5F5F5F5F5F5F5F5F5F5F5F5F5F5F5F5F5F5F5F5F5F5F5F5F5F5F5F5F5F5F5F5F5F5F5F5
310
F5F5F5F5F5F5F5F5F5F5F5F5F5F5F5F5F5F5F5F5F5F5F5F5F5F5F5F5F5F5F5F5F5F5F5F5F5F5F5F5F5F5F5F5F5F5F5F5F5F5F5F5F5F5F5F5F5E2F5F5F5F5F5F5F5F5E2E2E2F5F5F5F5F5F5F5F5E2F5F5F5F5F5F5F5F5F5F5F5F5F5F5F5F5F5F5F5F5F5F5F5F5F5F5F5F5F5F5F5F5F5F5F5F5F5F5F5F5F5F5F5F5F5F5F5F5F5
310
F5F5F5F5F5F5F5F5F5F5F5F5F5F5F5F5F5F5F5F5F5F5F5F5F5F5F5F5F5F5F5F5F5F5F5F5F5F5F5F5F5F5F5F5F5F5F5F5F5F5F5F5F5F5F5F5F5F5F5F5F5F5F5F5F5F5F5F5F5F5F5F5F5F5F5F5F5F5F5F5F5F5F5F5F5F5F5F5F5F5F5F5F5F5F5F5F5F5F5F5F5F5F5F5F5F5F5F5F5F5E2F5F5F5F5F5F5F5F5E2E2E2F5F5F5F5F5
310
F5F5F5E2F5F5F5F5F5F5F5F5F5F5F5F5F5F5F5F5F5F5F5F5F5F5F5F5F5F5F5F5F5F5F5F5F5F5F5F5F5F5F5F5F5F5F5F5F5F5F5F5F5F5F5F5F5F5F5F5F5F5F5F5F5F5F5F5F5F5F5F5F5F5F5F5F5F5F5F5F5F5F5F5F5F5F5F5F5F5F5F5F5F5F5F5F5F5F5F5F5F5F5F5F5F5F5F5F5F5F5F5F5F5F5F5F5F5F5F5F5F5F5F5F5F5F5
310
F5F5F5F5F5F5F5F5F5F5F5F5F5F5F5F5F5F5F5F5F5F5F5F5F5F5F5F5F5F5F5F5F5F5F5F5E2F5F5F5F5F5F5F5F5E2E2E2F5F5F5F5F5E2F5F5E2F5F5F5F5F5F5F5F5F5F5F5F5F5F5F5F5F5F5F5F5F5F5F5F5F5F5F5F5F5F5F5F5F5F5F5F5F5F5F5F5F5F5F5F5F5F5F5F5F5F5F5F5F5F5F5F5F5F5F5F5F5F5F5F5F5F5F5F5F5F5
310
F5F5F5F5F5F5F5F5F5F5F5F5F5F5F5F5F5F5F5F5F5F5F5F5F5F5F5F5F5F5F5F5F5F5F5F5F5F5F5F5F5F5F5F5F5F5F5F5F5F5F5F5F5F5F5F5F5F5F5F5F5F5F5F5F5F5F5F5F5F5F5F5F5F5F5F5F5F5F5F5F5F5F5F5F5F5F5F5F5E2F5F5E2F5F5F5F5F5E2E2E2F5F5F5F5F5E2F5F5E2F5F5F5F5F5F5F5F5F5F5F5F5F5F5F5F5F5
310
F5F5F5F5F5F5F5F5F5F5F5F5F5F5F5F5F5F5F5F5F5F5F5F5F5F5F5F5F5F5F5F5F5F5F5F5F5F5F5F5F5F5F5F5F5F5F5F5F5F5F5F5F5F5F5F5F5F5F5F5F5F5F5F5F5F5F5F5F5F5F5F5F5F5F5F5F5F5F5F5F5F5F5F5F5F5F5F5F5F5F5F5F5F5F5F5F5F5F5F5F5F5F5F5F5F5F5F5F5F5F5F5F5F5F5F5F5F5F5F5F5F5F5F5F5F5F5
310
F5F5F5F5F5F5F5F5F5F5F5F5F5F5F5E2F5F5E2F5F5F5F5F5E2E2E2F5F5F5F5F5E2F5F5E2E2E2E2E2E2E2E2E2E2E2E2E2E2E2E2E2E2E2E2E2E2E2E2E2E2E2E2E2E2E2E2E2E2E2E2E2E2E2E2E2E2E2E2E2E2E2E2E2E2E2E2E2E2E2E2E2E2E2E2E2E2E2E2E2E2E2E2E2E2E2E2E2E2E2E2E2E2E2E2E2E2E2E2E2E2E2E2E2E2E2E2
310
E2E2E2E2E2E2E2E2E2E2E2E2E2E2E2E2E2E2E2E2E2E2E2E2E2E2E2E2E2E2E2E2E2E2E2E2E2E2E2E2E2E2E2E2E2E2E2E2E2E2E2E2E2E2E2E2E2E2E2E2E2E2E2E2E2E2E2E2E2F5F5E2F5F5F5F5F5E2E2E2F5F5F5F5F5E2F5F5F5F5F5F5F5F5F5F5F5F5F5F5F5E2F5F5F5F5F5F5F5F5F5F5F5F5F5E2F5F5F5F5F5F5F5F5F5F5F5
310
F5E2F5F5F5F5F5F5F5F5F5F5F5F5E2F5F5F5F5F5F5F5F5F5F5F5F5E2E2F5F5F5F5F5F5F5F5F5F5F5F5E2F5F5F5F5F5F5F5F5F5F5F5F5E2E2F5F5F5F5F5F5F5F5F5F5F5F5E2F5F5F5F5F5F5F5F5F5F5F5F5E2F5F5F5F5F5F5F5F5F5F5F5F5E2F5F5F5F5F5F5F5F5F5F5F5F5E2E2F5F5F5F5F5F5F5F5F5F5F5F5F5F5F5E2F5F5
310
F5F5F5E2E2E2F5F5F5F5F5E2F5F5F5F5F5F5F5F5F5F5F5F5F5F5F5E2F5F5F5F5F5F5F5F5F5F5F5F5F5E2F5F5F5F5F5F5F5F5F5F5F5F5E2F5F5F5F5F5F5F5F5F5F5F5F5E2F5F5F5F5F5F5F5F5F5F5F5F5E2E2F5F5F5F5F5F5F5F5F5F5F5F5E2F5F5F5F5F5F5F5F5F5F5F5F5E2F5F5F5F5F5F5F5F5F5F5F5F5F5E2F5F5F5F5F5
310
F5F5F5F5F5F5F5E2F5F5F5F5F5F5F5F5F5F5F5F5E2F5F5F5F5F5F5F5F5F5F5F5F5E2E2F5F5F5F5F5F5F5F5F5F5F5F5F5F5F5E2F5F5F5F5F5E2E2E2F5F5F5F5F5E2F5F5F5F5F5F5F5F5F5F5F5F5F5F5F5F5F5F5F5F5F5F5F5F5F5F5F5F5F5E2F5F5F5F5F5F5F5F5F5F5F5F5F5F5F5F5F5F5F5F5F5F5F5F5F5E2F5F5F5F5F5F5
310
F5F5F5F5F5F5F5F5F5F5F5F5F5F5F5F5F5F5F5F5E2F5F5F5F5F5F5F5F5F5F5F5F5F5F5F5F5F5F5F5F5F5F5F5F5F5F5E2F5F5F5F5F5F5F5F5F5F5F5F5F5F5F5F5F5F5F5F5F5F5F5F5F5E2F5F5F5F5F5F5F5F5F5F5F5F5F5F5F5F5F5F5F5F5F5F5F5F5F5F5F5F5F5E2F5F5F5F5F5E2E2E2F5F5F5F5F5E2F5F5F5F5F5F5F5F5F5
310
F5F5F5F5F5F5F5F5F5F5F5F5F5F5F5F5F5F5F5F5F5F5F5F5F5F5F5F5F5F5F5F5F5F5F5F5F5F5F5F5F5F5F5F5F5F5F5F5F5F5F5F5F5F5F5F5F5F5F5F5F5F5F5F5F5F5F5F5F5F5F5F5F5F5F5F5F5F5F5F5F5F5F5F5F5F5F5F5F5F5F5F5F5F5F5F5F5F5F5F5F5F5F5F5F5F5F5F5F5F5F5F5F5F5F5F5F5F5F5F5F5F5F5F5F5F5F5
310
F5F5F5F5F5F5F5F5F5F5F5F5F5F5F5F5F5F5F5F5F5F5F5F5F5F5F5F5F5E2F5F5F5F5F5E2E2E2F5F5F5F5F5E2E2E2E2E2E2E2E2F5F5F5F5F5F5F5F5F5E2E2E2E2E2E2E2E2E2E2E2E2E2E2E2F5F5F5F5F5F5F5F5E2E2E2E2E2E2E2E2E2E2E2E2E2E2E2E2F5F5F5F5F5F5F5F5E2E2E2E2E2E2E2E2E2E2E2E2E2E2E2F5F5F5F5F5
310
F5F5F5F5E2E2E2E2E2E2E2E2E2E2E2E2E2E2E2F5F5F5F5F5F5F5F5E2E2E2E2E2E2E2E2E2E2E2E2E2E2E2E2F5F5F5F5F5F5F5F5E2E2E2E2E2E2E2E2E2E2E2E2E2E2E2F5F5F5F5F5F5F5F5F5E2E2E2E2E2E2E2E2F5F5F5F5F5E2E2E2F5F5F5F5F5F5F5F5F5F5F5F5F5F5F5F5F5F5F5F5F5F5F5F5F5F5F5F5F5F5F5F5F5F5F5F5
310
F5F5F5F5F5F5F5F5F5F5F5F5F5F5F5F5F5F5F5F5F5F5F5F5F5F5F5F5F5F5F5F5F5F5F5F5F5F5F5F5F5F5F5F5F5F5F5F5F5F5F5F5F5F5F5F5F5F5F5F5F5F5F5F5F5F5F5F5F5F5F5F5F5F5F5F5F5F5F5F5F5F5F5F5F5F5F5F5F5F5F5F5F5F5F5F5F5F5F5F5F5F5F5F5F5F5F5F5F5F5F5F5F5F5F5F5F5F5F5F5F5F5F5F5F5F5F5
310
F5F5F5F5F5F5F5F5F5F5F5F5F5F5E2E2E2F5F5F5F5F5F5F5F5F5F5F5F5F5F5F5F5F5F5F5F5F5F5F5F5F5F5F5F5F5F5F5F5F5F5F5F5F5F5F5F5F5F5F5F5F5F5F5F5F5F5F5F5F5F5F5F5F5F5F5F5F5F5F5F5F5F5F5F5F5F5F5F5F5F5F5F5F5F5F5F5F5F5F5F5F5F5F5F5F5F5F5F5F5F5F5F5F5F5F5F5F5F5F5F5F5F5F5F5F5F5
310
F5F5F5F5F5F5F5F5F5F5F5F5F5F5F5F5F5F5F5F5F5F5F5F5F5F5F5F5F5F5F5F5F5F5F5F5F5F5F5F5F5F5F5F5F5F5F5F5F5F5F5F5F5F5F5F5F5F5F5F5F5F5F5F5F5F5F5E2E2E2F5F5F5F5F5F5F5F5F5F5F5F5F5F5F5F5F5F5F5F5F5F5F5F5F5F5F5F5F5F5F5F5F5F5F5F5F5F5F5F5F5F5F5F5F5F5F5F5F5F5F5F5F5F5F5F5F5
310
F5F5F5F5F5F5F5F5F5F5F5F5F5F5F5F5F5F5F5F5F5F5F5F5F5F5F5F5F5F5F5F5F5F5F5F5F5F5F5F5F5F5F5F5F5F5F5F5F5F5F5F5F5F5F5F5F5F5F5F5F5F5F5F5F5F5F5F5F5F5F5F5F5F5F5F5F5F5F5F5F5F5F5F5F5F5F5F5F5F5F5F5F5F5F5F5F5F5F5F5F5F5F5F5F5F5F5F5F5F5F5F5F5F5F5F5F5F5F5F5E2EFE2E2E2E2E2
310
E2E2E2E2E2E2E2E2E2E2E2E2E2E2E2E2E2E2E2E2E2E2E2E2E2E2E2E2E2E2E2E2E2E2E2E2E2E2E2E2E2E2E2E2E2E2E2E2E2E2E2E2E2E2E2E2E2E2E2E2E2E2E2E2E2E2E2E2E2E2E2E2E2E2E2E2E2E2E2E2E2E2E2E2E2E2E2E2E2E2E2E2E2E2E2E2E2E2E2E2E2E2E2E2E2E2E2E2E2E2E2E2E2E2E2E2E2E2E2E2E2E2E2E2E2E2E2
310
E2E2E2E2E2E2E2E2E2E2E2E2E2E2E2E2E2E2E2E2E2E2E2E2E2E2E2E2E2E2E2E2E2E2E2E2E2E2E2E2E2E2E2E2E2E2E2EF
  0
XRECORD
  5
1D6F
102
{ACAD_REACTORS
330
1D6E
102
}
330
1D6E
100
AcDbXrecord
280
     1
102
MATERIAL
148
0.0
149
0.0
149
0.0
 93
        0
 94
       63
282
     0
 72
     1
 77
     1
171
     1
175
     1
179
     1
273
     0
  0
XRECORD
  5
1D6D
102
{ACAD_REACTORS
330
1D6C
102
}
330
1D6C
100
AcDbXrecord
280
     1
102
MATERIAL
148
0.0
149
0.0
149
0.0
 93
        0
 94
       63
282
     0
 72
     1
 77
     1
171
     1
175
     1
179
     1
273
     0
  0
XRECORD
  5
1D71
102
{ACAD_REACTORS
330
1D70
102
}
330
1D70
100
AcDbXrecord
280
     1
102
MATERIAL
148
0.0
149
0.0
149
0.0
 93
        0
 94
       63
282
     0
 72
     1
 77
     1
171
     1
175
     1
179
     1
273
     0
  0
XRECORD
  5
1F93
102
{ACAD_REACTORS
330
1F92
102
}
330
1F92
100
AcDbXrecord
280
     1
102
ACAD_ROUNDTRIP_PRE2007_TABLESTYLE
 90
      512
 91
        0
  1

 92
      512
 93
        0
  2

 94
      512
 95
        0
  3

  0
ENDSEC
  0
EOF
